[4K欧美 MV]卡迪B&梅根-Thee Stallion 4K [2160P/MKV/489MB]

[复制链接]

2825

主题

3188

帖子

2万

积分

超级版主

Rank: 8Rank: 8

积分
26891
 楼主| 发表于 2022-7-3 10:55:44 | 显示全部楼层 |阅读模式
本帖最后由 叽里呱啦 于 2022-7-3 10:55 编辑

Cardi B & Megan Thee Stallion - Wap.mkv_20220524_122459.961.jpg Cardi B & Megan Thee Stallion - Wap.mkv_20220524_122505.041.jpg Cardi B & Megan Thee Stallion - Wap.mkv_20220524_122718.729.jpg Cardi B & Megan Thee Stallion - Wap.mkv_20220524_122523.738.jpg Cardi B & Megan Thee Stallion - Wap.mkv_20220524_122547.602.jpg Cardi B & Megan Thee Stallion - Wap.mkv_20220524_122625.458.jpg

Video
ID                             : 1
Format                         : VP9
Codec ID                       : V_VP9
Duration                       : 4 min 12 s
Bit rate                       : 16.2 Mb/s
Width                          : 3 840 pixels
Height                         : 2 160 pixels
Display aspect ratio           : 16:9
Frame rate mode                : Constant
Frame rate                     : 23.976 (24000/1001) FPS
Color space                    : YUV
Bits/(Pixel*Frame)             : 0.082
Stream size                    : 488 MiB (98%)
Default                        : Yes
Forced                         : No
Color range                    : Limited
Color primaries                : BT.709
Transfer characteristics       : BT.709
Matrix coefficients            : BT.709

Audio
ID                             : 2
Format                         : AAC LC
Format/Info                    : Advanced Audio Codec Low Complexity
Codec ID                       : A_AAC-2
Duration                       : 4 min 12 s
Bit rate                       : 333 kb/s
Channel(s)                     : 2 channels
Channel layout                 : L R
Sampling rate                  : 48.0 kHz
Frame rate                     : 46.875 FPS (1024 SPF)
Compression mode               : Lossy
Stream size                    : 10.0 MiB (2%)
Language                       : English
Default                        : Yes
Forced                         : No

下载地址:

****此区域为收费内容****    需支付 15 金币后可查看立即购买







上一篇:2022 泰延 - INVU [4K原始版本.alang][2160P/MP4/639MB]
下一篇:[现场 MV] 比莉·艾利斯-17号码头的屋顶(2019年)[2160P/MKV/1.16GB]
回复

使用道具 举报

1

主题

1611

帖子

4441

积分

4K家园VIP

Rank: 9Rank: 9Rank: 9

积分
4441
发表于 2022-7-3 10:55:50 | 显示全部楼层
我也来顶一下..
回复 支持 反对

使用道具 举报

0

主题

3

帖子

12

积分

新手上路

Rank: 1

积分
12
发表于 2022-7-5 15:40:46 | 显示全部楼层
非常感谢,谢谢分享!
回复 支持 反对

使用道具 举报

42

主题

1527

帖子

4393

积分

4K家园VIP

Rank: 9Rank: 9Rank: 9

积分
4393
发表于 2022-7-5 17:27:58 来自手机 | 显示全部楼层
高手云集 果断围观
回复 支持 反对

使用道具 举报

2

主题

1165

帖子

3513

积分

4K家园VIP

Rank: 9Rank: 9Rank: 9

积分
3513
发表于 2022-7-6 02:30:46 | 显示全部楼层
高手云集 果断围观
回复 支持 反对

使用道具 举报

0

主题

1389

帖子

4001

积分

中级会员

Rank: 4

积分
4001
发表于 2022-7-6 16:26:21 | 显示全部楼层
楼猪V5啊
回复 支持 反对

使用道具 举报

0

主题

1

帖子

6

积分

新手上路

Rank: 1

积分
6
发表于 2022-7-7 12:55:31 | 显示全部楼层

naked teen ass


naked teen ass
回复 支持 反对

使用道具 举报

3

主题

1342

帖子

4052

积分

4K家园VIP

Rank: 9Rank: 9Rank: 9

积分
4052
发表于 2022-7-10 12:28:19 | 显示全部楼层
为了三千积分!
回复 支持 反对

使用道具 举报

0

主题

1

帖子

6

积分

新手上路

Rank: 1

积分
6
发表于 2022-7-11 02:48:32 | 显示全部楼层

Has anyone heard of the site goodstome? 2022


Does anyone have information about this site goodstome.com ?
回复 支持 反对

使用道具 举报

您需要登录后才可以回帖 登录 | 立即注册

本版积分规则

精彩图文
Archiver|手机版|TAG|Sitemap|新帖|专题|联系我们:邮箱: 4kjia.com@gmail.com   

4k家园   ©2019