超级侦探海莉(简繁粤中字)(2021)/第一季10集全/4K高清版本下载

[复制链接]

155

主题

176

帖子

1760

积分

版主

Rank: 7Rank: 7Rank: 7

积分
1760
 楼主| 发表于 2022-5-25 12:07:59 | 显示全部楼层 |阅读模式
QQ图片20220525112930_副本.jpg

◎译  名 超级侦探海莉
◎片  名 Harriet the Spy
◎年  代 2021
◎产  地 美国
◎类  别 喜剧 / 动画 / 悬疑 / 家庭 / 冒险
◎语  言 英语
◎上映日期 2021-11-19(美国网络)
◎IMDb评分  6.7/10 from 115 users
◎IMDb链接  https://www.imdb.com/title/tt12882128/
◎豆瓣评分 0/10 from 0 users
◎豆瓣链接 https://movie.douban.com/subject/35625470/
◎集  数 10
◎导  演 埃里森·克雷格 Allison Craig
◎编  剧 威尔·麦克罗伯 Will McRobb / 路易丝·菲卓 Louise Fitzhugh / 列维·阿布里诺 Levi Abrino / 哈利·曼奇尼 / 查理·费尔德曼 Charley Feldman
◎主  演 比妮·费尔德斯坦 Beanie Feldstein
                  简·林奇 Jane Lynch
                  金伯莉·布鲁克斯 Kimberly Brooks
                  Grey Griffin Grey Griffin
                  邦坡尔·罗宾逊 Bumper Robinson
                  查理·斯克莱特 Charlie Schlatter
                  莱西·沙伯特 Lacey Chabert
                  克里斯平·弗里曼 Crispin Freeman
                  麦丽·弗拉纳甘 Maile Flanagan
                  柯蒂斯·阿姆斯壮 Curtis Armstrong
                  菲尔·拉马 Phil LaMarr


◎简  介


         一个好奇的11岁女孩,为了追求成为一名职业作家的梦想,她寻求学习任何东西的一切。
Video
ID : 1
Format : HEVC
Format/Info : High Efficiency Video Coding
Format profile : Main 10@L5@High
HDR format : SMPTE ST 2086, HDR10 compatible
Codec ID : V_MPEGH/ISO/HEVC
Duration : 24 min 14 s
Bit rate : 24.0 Mb/s
Width : 3 840 pixels
Height : 2 160 pixels
Display aspect ratio : 16:9
Frame rate mode : Constant
Frame rate : 23.976 (24000/1001) FPS
Color space : YUV
Chroma subsampling : 4:2:0 (Type 2)
Bit depth : 10 bits
Bits/(Pixel*Frame) : 0.121
Stream size : 4.06 GiB (97%)
Language : English
Default : Yes
Forced : No
Color range : Limited
Color primaries : BT.2020
Transfer characteristics : PQ
Matrix coefficients : BT.2020 non-constant
Mastering display color primaries : Display P3
Mastering display luminance : min: 0.0050 cd/m2, max: 1000 cd/m2
Maximum Content Light Level : 357 cd/m2
Maximum Frame-Average Light Level : 162 cd/m2

Audio
ID : 2
Format : E-AC-3 JOC
Format/Info : Enhanced AC-3 with Joint Object Coding
Commercial name : Dolby Digital Plus with Dolby Atmos
Codec ID : A_EAC3
Duration : 24 min 14 s
Bit rate mode : Constant
Bit rate : 768 kb/s
Channel(s) : 6 channels
Channel layout : L R C LFE Ls Rs
Sampling rate : 48.0 kHz
Frame rate : 31.250 FPS (1536 SPF)
Compression mode : Lossy
Stream size : 133 MiB (3%)
Language : English
Service kind : Complete Main
Default : Yes
Forced : No
Complexity index : 16
Number of dynamic objects : 15
Bed channel count : 1 channel
Bed channel configuration : LFE

Text #1
ID : 3
Format : UTF-8
Codec ID : S_TEXT/UTF8
Codec ID/Info : UTF-8 Plain Text
Duration : 24 min 2 s
Bit rate : 71 b/s
Count of elements : 342
Stream size : 12.7 KiB (0%)
Title : English
Language : English
Default : No
Forced : No

Text #2
ID : 4
Format : UTF-8
Codec ID : S_TEXT/UTF8
Codec ID/Info : UTF-8 Plain Text
Duration : 24 min 2 s
Bit rate : 80 b/s
Count of elements : 381
Stream size : 14.3 KiB (0%)
Title : English (SDH)
Language : English
Default : No
Forced : No

Text #3
ID : 5
Format : UTF-8
Codec ID : S_TEXT/UTF8
Codec ID/Info : UTF-8 Plain Text
Duration : 24 min 5 s
Bit rate : 104 b/s
Count of elements : 348
Stream size : 18.4 KiB (0%)
Title : العربية
Language : Arabic
Default : No
Forced : No

Text #4
ID : 6
Format : UTF-8
Codec ID : S_TEXT/UTF8
Codec ID/Info : UTF-8 Plain Text
Duration : 24 min 5 s
Bit rate : 105 b/s
Count of elements : 337
Stream size : 18.6 KiB (0%)
Title : български
Language : Bulgarian
Default : No
Forced : No

Text #5
ID : 7
Format : UTF-8
Codec ID : S_TEXT/UTF8
Codec ID/Info : UTF-8 Plain Text
Duration : 24 min 5 s
Bit rate : 69 b/s
Count of elements : 333
Stream size : 12.2 KiB (0%)
Title : Čeština
Language : Czech
Default : No
Forced : No

Text #6
ID : 8
Format : UTF-8
Codec ID : S_TEXT/UTF8
Codec ID/Info : UTF-8 Plain Text
Duration : 24 min 5 s
Bit rate : 69 b/s
Count of elements : 318
Stream size : 12.3 KiB (0%)
Title : dansk
Language : Danish
Default : No
Forced : No

Text #7
ID : 9
Format : UTF-8
Codec ID : S_TEXT/UTF8
Codec ID/Info : UTF-8 Plain Text
Duration : 23 min 57 s
Bit rate : 84 b/s
Count of elements : 352
Stream size : 14.8 KiB (0%)
Title : Deutsch
Language : German
Default : No
Forced : No

Text #8
ID : 10
Format : UTF-8
Codec ID : S_TEXT/UTF8
Codec ID/Info : UTF-8 Plain Text
Duration : 24 min 5 s
Bit rate : 128 b/s
Count of elements : 347
Stream size : 22.8 KiB (0%)
Title : Ελληνικά
Language : Greek
Default : No
Forced : No

Text #9
ID : 11
Format : UTF-8
Codec ID : S_TEXT/UTF8
Codec ID/Info : UTF-8 Plain Text
Duration : 24 min 4 s
Bit rate : 78 b/s
Count of elements : 355
Stream size : 13.9 KiB (0%)
Title : Español (España)
Language : Spanish
Default : No
Forced : No

Text #10
ID : 12
Format : UTF-8
Codec ID : S_TEXT/UTF8
Codec ID/Info : UTF-8 Plain Text
Duration : 24 min 5 s
Bit rate : 76 b/s
Count of elements : 357
Stream size : 13.4 KiB (0%)
Title : Español (Latinoamérica)
Language : Spanish
Default : No
Forced : No

Text #11
ID : 13
Format : UTF-8
Codec ID : S_TEXT/UTF8
Codec ID/Info : UTF-8 Plain Text
Duration : 24 min 5 s
Bit rate : 72 b/s
Count of elements : 341
Stream size : 12.8 KiB (0%)
Title : eesti
Language : Estonian
Default : No
Forced : No

Text #12
ID : 14
Format : UTF-8
Codec ID : S_TEXT/UTF8
Codec ID/Info : UTF-8 Plain Text
Duration : 24 min 5 s
Bit rate : 68 b/s
Count of elements : 347
Stream size : 12.2 KiB (0%)
Title : Suomi
Language : Finnish
Default : No
Forced : No

Text #13
ID : 15
Format : UTF-8
Codec ID : S_TEXT/UTF8
Codec ID/Info : UTF-8 Plain Text
Duration : 24 min 0 s
Bit rate : 66 b/s
Count of elements : 365
Stream size : 11.8 KiB (0%)
Title : Français (France)
Language : French
Default : No
Forced : No

Text #14
ID : 16
Format : UTF-8
Codec ID : S_TEXT/UTF8
Codec ID/Info : UTF-8 Plain Text
Duration : 24 min 0 s
Bit rate : 66 b/s
Count of elements : 365
Stream size : 11.8 KiB (0%)
Title : Français (Canada)
Language : French
Default : No
Forced : No

Text #15
ID : 17
Format : UTF-8
Codec ID : S_TEXT/UTF8
Codec ID/Info : UTF-8 Plain Text
Duration : 24 min 5 s
Bit rate : 100 b/s
Count of elements : 348
Stream size : 17.7 KiB (0%)
Title : עברית
Language : Hebrew
Default : No
Forced : No

Text #16
ID : 18
Format : UTF-8
Codec ID : S_TEXT/UTF8
Codec ID/Info : UTF-8 Plain Text
Duration : 24 min 5 s
Bit rate : 196 b/s
Count of elements : 348
Stream size : 34.6 KiB (0%)
Title : हिन्दी
Language : Hindi
Default : No
Forced : No

Text #17
ID : 19
Format : UTF-8
Codec ID : S_TEXT/UTF8
Codec ID/Info : UTF-8 Plain Text
Duration : 24 min 5 s
Bit rate : 66 b/s
Count of elements : 344
Stream size : 11.8 KiB (0%)
Title : magyar
Language : Hungarian
Default : No
Forced : No

Text #18
ID : 20
Format : UTF-8
Codec ID : S_TEXT/UTF8
Codec ID/Info : UTF-8 Plain Text
Duration : 24 min 5 s
Bit rate : 68 b/s
Count of elements : 347
Stream size : 12.1 KiB (0%)
Title : Bahasa Indonesia
Language : Indonesian
Default : No
Forced : No

Text #19
ID : 21
Format : UTF-8
Codec ID : S_TEXT/UTF8
Codec ID/Info : UTF-8 Plain Text
Duration : 24 min 4 s
Bit rate : 79 b/s
Count of elements : 348
Stream size : 14.0 KiB (0%)
Title : Italiano
Language : Italian
Default : No
Forced : No

Text #20
ID : 22
Format : UTF-8
Codec ID : S_TEXT/UTF8
Codec ID/Info : UTF-8 Plain Text
Duration : 24 min 5 s
Bit rate : 78 b/s
Count of elements : 348
Stream size : 13.8 KiB (0%)
Title : 한국어
Language : Korean
Default : No
Forced : No

Text #21
ID : 23
Format : UTF-8
Codec ID : S_TEXT/UTF8
Codec ID/Info : UTF-8 Plain Text
Duration : 24 min 5 s
Bit rate : 67 b/s
Count of elements : 344
Stream size : 12.0 KiB (0%)
Title : lietuvių
Language : Lithuanian
Default : No
Forced : No

Text #22
ID : 24
Format : UTF-8
Codec ID : S_TEXT/UTF8
Codec ID/Info : UTF-8 Plain Text
Duration : 24 min 5 s
Bit rate : 77 b/s
Count of elements : 343
Stream size : 13.6 KiB (0%)
Title : latviešu
Language : Latvian
Default : No
Forced : No

Text #23
ID : 25
Format : UTF-8
Codec ID : S_TEXT/UTF8
Codec ID/Info : UTF-8 Plain Text
Duration : 24 min 5 s
Bit rate : 70 b/s
Count of elements : 347
Stream size : 12.4 KiB (0%)
Title : Bahasa Melayu
Language : Malay
Default : No
Forced : No

Text #24
ID : 26
Format : UTF-8
Codec ID : S_TEXT/UTF8
Codec ID/Info : UTF-8 Plain Text
Duration : 24 min 5 s
Bit rate : 71 b/s
Count of elements : 320
Stream size : 12.6 KiB (0%)
Title : Nederlands
Language : Dutch
Default : No
Forced : No

Text #25
ID : 27
Format : UTF-8
Codec ID : S_TEXT/UTF8
Codec ID/Info : UTF-8 Plain Text
Duration : 24 min 5 s
Bit rate : 65 b/s
Count of elements : 298
Stream size : 11.5 KiB (0%)
Title : norsk
Language : Norwegian
Default : No
Forced : No

Text #26
ID : 28
Format : UTF-8
Codec ID : S_TEXT/UTF8
Codec ID/Info : UTF-8 Plain Text
Duration : 24 min 5 s
Bit rate : 62 b/s
Count of elements : 330
Stream size : 11.1 KiB (0%)
Title : polski
Language : Polish
Default : No
Forced : No

Text #27
ID : 29
Format : UTF-8
Codec ID : S_TEXT/UTF8
Codec ID/Info : UTF-8 Plain Text
Duration : 24 min 5 s
Bit rate : 74 b/s
Count of elements : 346
Stream size : 13.2 KiB (0%)
Title : Português
Language : Portuguese
Default : No
Forced : No

Text #28
ID : 30
Format : UTF-8
Codec ID : S_TEXT/UTF8
Codec ID/Info : UTF-8 Plain Text
Duration : 24 min 5 s
Bit rate : 74 b/s
Count of elements : 346
Stream size : 13.1 KiB (0%)
Title : Português (Brasil)
Language : Portuguese
Default : No
Forced : No

Text #29
ID : 31
Format : UTF-8
Codec ID : S_TEXT/UTF8
Codec ID/Info : UTF-8 Plain Text
Duration : 24 min 5 s
Bit rate : 123 b/s
Count of elements : 368
Stream size : 21.7 KiB (0%)
Title : Русский
Language : Russian
Default : No
Forced : No

Text #30
ID : 32
Format : UTF-8
Codec ID : S_TEXT/UTF8
Codec ID/Info : UTF-8 Plain Text
Duration : 24 min 5 s
Bit rate : 72 b/s
Count of elements : 346
Stream size : 12.7 KiB (0%)
Title : Slovenčina
Language : Slovak
Default : No
Forced : No

Text #31
ID : 33
Format : UTF-8
Codec ID : S_TEXT/UTF8
Codec ID/Info : UTF-8 Plain Text
Duration : 24 min 5 s
Bit rate : 62 b/s
Count of elements : 319
Stream size : 11.0 KiB (0%)
Title : slovenščina
Language : Slovenian
Default : No
Forced : No

Text #32
ID : 34
Format : UTF-8
Codec ID : S_TEXT/UTF8
Codec ID/Info : UTF-8 Plain Text
Duration : 24 min 5 s
Bit rate : 65 b/s
Count of elements : 332
Stream size : 11.5 KiB (0%)
Title : Svenska
Language : Swedish
Default : No
Forced : No

Text #33
ID : 35
Format : UTF-8
Codec ID : S_TEXT/UTF8
Codec ID/Info : UTF-8 Plain Text
Duration : 24 min 5 s
Bit rate : 226 b/s
Count of elements : 346
Stream size : 40.0 KiB (0%)
Title : தமிழ்
Language : Tamil
Default : No
Forced : No

Text #34
ID : 36
Format : UTF-8
Codec ID : S_TEXT/UTF8
Codec ID/Info : UTF-8 Plain Text
Duration : 24 min 5 s
Bit rate : 202 b/s
Count of elements : 347
Stream size : 35.6 KiB (0%)
Title : తెలుగు
Language : Telugu
Default : No
Forced : No

Text #35
ID : 37
Format : UTF-8
Codec ID : S_TEXT/UTF8
Codec ID/Info : UTF-8 Plain Text
Duration : 24 min 5 s
Bit rate : 154 b/s
Count of elements : 347
Stream size : 27.2 KiB (0%)
Title : ไทย
Language : Thai
Default : No
Forced : No

Text #36
ID : 38
Format : UTF-8
Codec ID : S_TEXT/UTF8
Codec ID/Info : UTF-8 Plain Text
Duration : 24 min 5 s
Bit rate : 76 b/s
Count of elements : 347
Stream size : 13.5 KiB (0%)
Title : Türkçe
Language : Turkish
Default : No
Forced : No

Text #37
ID : 39
Format : UTF-8
Codec ID : S_TEXT/UTF8
Codec ID/Info : UTF-8 Plain Text
Duration : 24 min 5 s
Bit rate : 111 b/s
Count of elements : 347
Stream size : 19.7 KiB (0%)
Title : українська
Language : Ukrainian
Default : No
Forced : No

Text #38
ID : 40
Format : UTF-8
Codec ID : S_TEXT/UTF8
Codec ID/Info : UTF-8 Plain Text
Duration : 24 min 5 s
Bit rate : 93 b/s
Count of elements : 348
Stream size : 16.6 KiB (0%)
Title : Tiếng Việt
Language : Vietnamese
Default : No
Forced : No

Text #39
ID : 41
Format : UTF-8
Codec ID : S_TEXT/UTF8
Codec ID/Info : UTF-8 Plain Text
Duration : 24 min 5 s
Bit rate : 66 b/s
Count of elements : 348
Stream size : 11.8 KiB (0%)
Title : 中文(繁體)
Language : 中文
Default : No
Forced : No

Text #40
ID : 42
Format : UTF-8
Codec ID : S_TEXT/UTF8
Codec ID/Info : UTF-8 Plain Text
Duration : 24 min 5 s
Bit rate : 64 b/s
Count of elements : 347
Stream size : 11.4 KiB (0%)
Title : 中文(简体)
Language : 中文
Default : No
Forced : No


Text #41
ID : 43
Format : UTF-8
Codec ID : S_TEXT/UTF8
Codec ID/Info : UTF-8 Plain Text
Duration : 24 min 5 s
Bit rate : 66 b/s
Count of elements : 348
Stream size : 11.7 KiB (0%)
Title : 廣東話
Language : 中文
Default : No
Forced : No

Text #42
ID : 44
Format : UTF-8
Codec ID : S_TEXT/UTF8
Codec ID/Info : UTF-8 Plain Text
Duration : 24 min 4 s
Bit rate : 65 b/s
Count of elements : 359
Stream size : 11.5 KiB (0%)
Title : 日本語 (SDH)
Language : Japanese
Default : No
Forced : No

下载地址:

游客,如果您要查看本帖隐藏内容请回复

游客,如果您要查看本帖隐藏内容请回复

游客,如果您要查看本帖隐藏内容请回复

游客,如果您要查看本帖隐藏内容请回复











上一篇:1971:音乐改变世界的一年(简繁中字)/第一季8集全/4K高清下载
下一篇:肖尔西 / Shoresy (2022)/第一季6集全/ 4K高清版本下载
回复

使用道具 举报

2

主题

1678

帖子

4652

积分

4K家园VIP

Rank: 9Rank: 9Rank: 9

积分
4652
发表于 2022-5-25 12:09:21 来自手机 | 显示全部楼层
我只是路过,不发表意见
回复 支持 反对

使用道具 举报

8

主题

1171

帖子

3481

积分

4K家园VIP

Rank: 9Rank: 9Rank: 9

积分
3481
发表于 2022-5-25 12:38:35 | 显示全部楼层
不错 支持一个了
回复 支持 反对

使用道具 举报

2

主题

1472

帖子

4220

积分

4K家园VIP

Rank: 9Rank: 9Rank: 9

积分
4220
发表于 2022-5-25 19:11:33 来自手机 | 显示全部楼层
秀起来~
回复 支持 反对

使用道具 举报

0

主题

8240

帖子

1万

积分

4K家园VIP

Rank: 9Rank: 9Rank: 9

积分
18968
发表于 2022-5-26 08:07:16 | 显示全部楼层
太好啦&萬分感謝版主的無私發佈分享%
回复 支持 反对

使用道具 举报

2

主题

1333

帖子

3813

积分

4K家园VIP

Rank: 9Rank: 9Rank: 9

积分
3813
发表于 2022-5-26 08:32:42 | 显示全部楼层
都不知道说的啥
回复 支持 反对

使用道具 举报

60

主题

1492

帖子

4332

积分

4K家园VIP

Rank: 9Rank: 9Rank: 9

积分
4332
发表于 2022-5-26 11:49:28 | 显示全部楼层
very good
回复 支持 反对

使用道具 举报

您需要登录后才可以回帖 登录 | 立即注册

本版积分规则

精彩图文
Archiver|手机版|TAG|Sitemap|新帖|专题|联系我们:邮箱: 4kjia.com@gmail.com   

4k家园   ©2019