[4K电影] 记录在案 / On the Record (2020) 4K高清版本下载

[复制链接]

2299

主题

2448

帖子

1万

积分

超级版主

Rank: 8Rank: 8

积分
17752
 楼主| 发表于 2022-5-30 00:13:29 | 显示全部楼层 |阅读模式

QQ图片20220530001236_副本.png

◎译  名 记录在案
◎片  名 On the Record
◎年  代 2020
◎产  地 美国
◎语  言 英语
◎上映日期 2020-01-25(圣丹斯电影节) / 2020-05-27(美国)
◎IMDb评分  7.1/10 from 901 users
◎IMDb链接  https://www.imdb.com/title/tt11394650
◎豆瓣评分 0/10 from 0 users
◎豆瓣链接 https://movie.douban.com/subject/34907427/
◎导  演 科比·迪克 Kirby Dick / 埃米·泽林 Amy Ziering
◎编  剧 科比·迪克 Kirby Dick / Sara Newens / 埃米·泽林 Amy Ziering
◎主  演 Sil Lai Abrams Sil Lai Abrams
       塔拉纳·伯克 Tarana Burke
       金伯利·克伦肖 Kimberle Crenshaw
       德鲁·狄克逊 Drew Dixon
       基尔纳·梅奥 Kierna Mayo
       琼·摩根 Joan Morgan


◎简  介

  一位前嘻哈高管决定是否公开音乐界最有权势的人强奸她的案件。

Video
ID : 1
Format : HEVC
Format/Info : High Efficiency Video Coding
Format profile : Main 10@L5@High
Codec ID : V_MPEGH/ISO/HEVC
Duration : 1 h 37 min
Bit rate : 9 072 kb/s
Width : 3 840 pixels
Height : 2 160 pixels
Display aspect ratio : 16:9
Frame rate mode : Constant
Frame rate : 23.976 (24000/1001) FPS
Color space : YUV
Chroma subsampling : 4:2:0
Bit depth : 10 bits
Bits/(Pixel*Frame) : 0.046
Stream size : 6.16 GiB (96%)
Language : English
Default : Yes
Forced : No
Color range : Limited
Color primaries : BT.709
Transfer characteristics : BT.709
Matrix coefficients : BT.709

Audio
ID : 2
Format : AC-3
Format/Info : Audio Coding 3
Commercial name : Dolby Digital
Codec ID : A_AC3
Duration : 1 h 37 min
Bit rate mode : Constant
Bit rate : 384 kb/s
Channel(s) : 6 channels
Channel layout : L R C LFE Ls Rs
Sampling rate : 48.0 kHz
Frame rate : 31.250 FPS (1536 SPF)
Compression mode : Lossy
Stream size : 267 MiB (4%)
Language : English
Service kind : Complete Main
Default : Yes
Forced : No

Text #1
ID : 3
Format : UTF-8
Codec ID : S_TEXT/UTF8
Codec ID/Info : UTF-8 Plain Text
Duration : 1 h 31 min
Bit rate : 122 b/s
Count of elements : 1661
Stream size : 82.2 KiB (0%)
Language : English
Default : No
Forced : No

Text #2
ID : 4
Format : UTF-8
Codec ID : S_TEXT/UTF8
Codec ID/Info : UTF-8 Plain Text
Duration : 1 h 37 min
Bit rate : 201 b/s
Count of elements : 1873
Stream size : 143 KiB (0%)
Title : SDH
Language : English
Default : No
Forced : No
资源速度为零或资源敏感被和谐时,推荐使用qBittorrent等下载软件,有条件的推荐115更好的下载软件!

下载地址:


游客,如果您要查看本帖隐藏内容请回复





上一篇:零接触 / Zero Contact (2022) 4K高清版本下载
下一篇:斯图神父 / Father Stu (2022) 4K高清版本下载
回复

使用道具 举报

42

主题

1530

帖子

4402

积分

4K家园VIP

Rank: 9Rank: 9Rank: 9

积分
4402
发表于 2022-5-30 00:13:33 | 显示全部楼层
打酱油的人拉,回复下赚取积分
回复 支持 反对

使用道具 举报

0

主题

103

帖子

615

积分

新手上路

Rank: 1

积分
615
发表于 2022-5-31 08:33:12 | 显示全部楼层
回复下赚取积分
回复 支持 反对

使用道具 举报

3

主题

1385

帖子

4173

积分

4K家园VIP

Rank: 9Rank: 9Rank: 9

积分
4173
发表于 2022-6-1 12:29:23 | 显示全部楼层
纯粹路过,没任何兴趣,仅仅是看在老用户份上回复一下
回复 支持 反对

使用道具 举报

0

主题

4

帖子

21

积分

新手上路

Rank: 1

积分
21
发表于 2022-6-1 12:56:15 | 显示全部楼层
感谢楼主分享
回复 支持 反对

使用道具 举报

0

主题

1

帖子

6

积分

新手上路

Rank: 1

积分
6
发表于 2022-6-5 10:39:09 | 显示全部楼层

webcam nude free

webcam nude free
回复 支持 反对

使用道具 举报

1

主题

1638

帖子

4488

积分

4K家园VIP

Rank: 9Rank: 9Rank: 9

积分
4488
发表于 2022-6-5 11:31:00 | 显示全部楼层
一直在看
回复 支持 反对

使用道具 举报

52

主题

1487

帖子

4291

积分

4K家园VIP

Rank: 9Rank: 9Rank: 9

积分
4291
发表于 2022-6-6 09:17:22 来自手机 | 显示全部楼层
不错 支持下
回复 支持 反对

使用道具 举报

47

主题

1534

帖子

4444

积分

4K家园VIP

Rank: 9Rank: 9Rank: 9

积分
4444
发表于 2022-6-7 11:40:48 | 显示全部楼层
小白一个 顶一下
回复 支持 反对

使用道具 举报

您需要登录后才可以回帖 登录 | 立即注册

本版积分规则

精彩图文
Archiver|手机版|TAG|Sitemap|新帖|专题|联系我们:邮箱: 4kjia.com@gmail.com   

4k家园   ©2019