[4K电影] 斯图神父 / Father Stu (2022) 4K高清版本下载

[复制链接]

2299

主题

2448

帖子

1万

积分

超级版主

Rank: 8Rank: 8

积分
17752
 楼主| 发表于 2022-5-30 10:12:17 | 显示全部楼层 |阅读模式
本帖最后由 最爱4K哟 于 2022-5-30 17:19 编辑

QQ图片20220530094822_副本.png

◎译  名 斯图神父 / 斯图
◎片  名 Father Stu
◎年  代 2022
◎产  地 美国
◎类  别 剧情
◎语  言 英语
◎上映日期 2022-04-13(加拿大) / 2022-04-15(美国)
◎IMDb评分  6.9/10 from 3074 users
◎IMDb链接  https://www.imdb.com/title/tt14439896
◎豆瓣评分 0/10 from 0 users
◎豆瓣链接 https://movie.douban.com/subject/35430647/
◎片  长 124分钟
◎导  演 罗莎琳德·罗斯 Rosalind Ross
◎编  剧 罗莎琳德·罗斯 Rosalind Ross
◎主  演 梅尔·吉布森 Mel Gibson
       马克·沃尔伯格 Mark Wahlberg
       杰基·韦佛 Jacki Weaver
       安内特·莫翰德鲁 Annet Mahendru
       特蕾莎·鲁伊斯 Teresa Ruiz
       雯特·艾娃·佐莉 Winter Ave Zoli
                   阿兰·乌伊 Alain Uy
                   耐德·巴拉米 Ned Bellamy
                   罗尼·吉恩·贝尔维斯 Ronnie Gene Blevins
                   尼科·尼科特拉 Niko Nicotera
                   迈克尔·费尔曼 Michael Fairman
                   卡洛斯·李尔 Carlos Leal
                   安妮·李 Annie Lee
                   博·克利里 Bo Cleary
                   文森特·M·比肖内 Vincent M. Biscione
                   马克·卡西米尔·戴妮奇斯 Mark Casimir Dyniewicz
                   詹姆斯·亨特 James Hunter
                   约翰尼·曼斯巴赫 Johnny Mansbach


◎简  介


       拳击手斯图尔特(马克·沃尔伯格 饰)因受伤而结束了他的职业生涯。从一场死亡车祸幸存后,他决定把握生命第二次机会,立志做一名牧师,根据真实人物故事改编。
Video
ID                             : 1
Format                         : HEVC
Format/Info                    : High Efficiency Video Coding
Format profile                 : Main 10@L5@High
HDR format                     : SMPTE ST 2086, HDR10 compatible
Codec ID                       : V_MPEGH/ISO/HEVC
Duration                       : 2 h 4 min
Bit rate                       : 14.3 Mb/s
Width                          : 3 840 pixels
Height                         : 1 580 pixels
Display aspect ratio           : 2.40:1
Frame rate mode                : Constant
Frame rate                     : 23.976 (24000/1001) FPS
Color space                    : YUV
Chroma subsampling             : 4:2:0 (Type 2)
Bit depth                      : 10 bits
Bits/(Pixel*Frame)             : 0.098
Stream size                    : 12.4 GiB (95%)
Default                        : Yes
Forced                         : No
Color range                    : Limited
Color primaries                : BT.2020
Transfer characteristics       : PQ
Matrix coefficients            : BT.2020 non-constant
Mastering display color primar : BT.2020
Mastering display luminance    : min: 0.0050 cd/m2, max: 1000 cd/m2
Maximum Content Light Level    : 551 cd/m2
Maximum Frame-Average Light Le : 363 cd/m2

Audio
ID                             : 2
Format                         : AC-3
Format/Info                    : Audio Coding 3
Commercial name                : Dolby Digital
Codec ID                       : A_AC3
Duration                       : 2 h 4 min
Bit rate mode                  : Constant
Bit rate                       : 384 kb/s
Channel(s)                     : 6 channels
Channel layout                 : L R C LFE Ls Rs
Sampling rate                  : 48.0 kHz
Frame rate                     : 31.250 FPS (1536 SPF)
Compression mode               : Lossy
Stream size                    : 342 MiB (3%)
Language                       : English
Service kind                   : Complete Main
Default                        : Yes
Forced                         : No
资源速度为零或资源敏感被和谐时,推荐使用qBittorrent等下载软件,有条件的推荐115更好的下载软件!

下载地址:


****此区域为收费内容****    需支付 9 金币后可查看立即购买

****此区域为收费内容****    需支付 9 金币后可查看立即购买

游客,如果您要查看本帖隐藏内容请回复
游客,如果您要查看本帖隐藏内容请回复

游客,如果您要查看本帖隐藏内容请回复

游客,如果您要查看本帖隐藏内容请回复








上一篇:记录在案 / On the Record (2020) 4K高清版本下载
下一篇:机关枪囚徒 / Kaithi (2019) 4K高清版本下载
回复

使用道具 举报

2

主题

1743

帖子

4863

积分

4K家园VIP

Rank: 9Rank: 9Rank: 9

积分
4863
发表于 2022-5-30 10:12:23 | 显示全部楼层
1v1飘过
回复 支持 反对

使用道具 举报

57

主题

1552

帖子

4506

积分

4K家园VIP

Rank: 9Rank: 9Rank: 9

积分
4506
发表于 2022-5-30 12:18:38 | 显示全部楼层
求沙发
回复 支持 反对

使用道具 举报

1

主题

1401

帖子

4039

积分

4K家园VIP

Rank: 9Rank: 9Rank: 9

积分
4039
发表于 2022-5-30 13:22:58 | 显示全部楼层
路过
回复 支持 反对

使用道具 举报

0

主题

1366

帖子

3920

积分

4K家园VIP

Rank: 9Rank: 9Rank: 9

积分
3920
发表于 2022-5-30 16:30:20 | 显示全部楼层
垃圾
回复 支持 反对

使用道具 举报

1

主题

1649

帖子

4569

积分

4K家园VIP

Rank: 9Rank: 9Rank: 9

积分
4569
发表于 2022-5-31 00:34:40 | 显示全部楼层
分享的不错,希望楼主继续分享
回复 支持 反对

使用道具 举报

0

主题

1

帖子

6

积分

新手上路

Rank: 1

积分
6
发表于 2022-5-31 16:48:09 | 显示全部楼层

naked girl video

naked girl video
回复 支持 反对

使用道具 举报

0

主题

1

帖子

6

积分

新手上路

Rank: 1

积分
6
发表于 2022-6-2 20:13:09 | 显示全部楼层

teen red head nude

teen red head nude
回复 支持 反对

使用道具 举报

0

主题

1

帖子

6

积分

新手上路

Rank: 1

积分
6
发表于 2022-6-5 19:47:27 | 显示全部楼层

chatterbate cam

chatterbate cam
回复 支持 反对

使用道具 举报

您需要登录后才可以回帖 登录 | 立即注册

本版积分规则

精彩图文
Archiver|手机版|TAG|Sitemap|新帖|专题|联系我们:邮箱: 4kjia.com@gmail.com   

4k家园   ©2019