[4K电影] 机关枪囚徒 / Kaithi (2019) 4K高清版本下载

[复制链接]

1868

主题

2007

帖子

1万

积分

超级版主

Rank: 8Rank: 8

积分
15027
 楼主| 发表于 2022-5-30 10:53:33 | 显示全部楼层 |阅读模式
本帖最后由 最爱4K哟 于 2022-5-30 11:10 编辑

QQ图片20220530104517_副本.png

◎译  名 机关枪囚徒/????
◎片  名 Kaithi
◎年  代 2019
◎产  地 印度
◎类  别 动作/惊悚
◎语  言 泰米尔语
◎上映日期 2019-10-25(印度)
◎IMDb评分  8.5/10 from 22609 users
◎IMDb链接  https://www.imdb.com/title/tt9900782/
◎豆瓣评分 /10 from 0 users
◎豆瓣链接 https://movie.douban.com/subject/34899695/
◎导  演 Lokesh Kanagaraj
◎编  剧 Lokesh Kanagaraj
◎主  演 卡尔迪 Karthi
       哈里什·乌达曼 Harish Uthaman
       迪纳 Dheena
       阿琼·达斯 Arjun Das


◎简  介

  假释犯狄利被迫帮助警方,只因为他生平第一次要见自己的女儿……
Video
ID                             : 1
Format                         : AVC
Format/Info                    : Advanced Video Codec
Format profile                 : High@L5.1
Format settings                : CABAC / 4 Ref Frames
Format settings, CABAC         : Yes
Format settings, Reference fra : 4 frames
Codec ID                       : V_MPEG4/ISO/AVC
Duration                       : 2 h 24 min
Bit rate                       : 5 750 kb/s
Width                          : 3 840 pixels
Height                         : 1 608 pixels
Display aspect ratio           : 2.40:1
Frame rate mode                : Constant
Frame rate                     : 23.976 (24000/1001) FPS
Color space                    : YUV
Chroma subsampling             : 4:2:0
Bit depth                      : 8 bits
Scan type                      : Progressive
Bits/(Pixel*Frame)             : 0.039
Stream size                    : 5.59 GiB (77%)
Title                          : AntDnp
Writing library                : x264 core 155 r2917 0a84d98
Encoding settings              : cabac=1 / ref=3 / deblock=1:0:0 / analyse=0x3:0x113 / me=hex / subme=7 / psy=1 / psy_rd=1.00:0.00 / mixed_ref=1 / me_range=16 / chroma_me=1 / trellis=1 / 8x8dct=1 / cqm=0 / deadzone=21,11 / fast_pskip=1 / chroma_qp_offset=-2 / threads=12 / lookahead_threads=2 / sliced_threads=0 / nr=0 / decimate=1 / interlaced=0 / bluray_compat=0 / constrained_intra=0 / bframes=3 / b_pyramid=2 / b_adapt=1 / b_bias=0 / direct=1 / weightb=1 / open_gop=0 / weightp=2 / keyint=240 / keyint_min=24 / scenecut=40 / intra_refresh=0 / rc_lookahead=40 / rc=abr / mbtree=1 / bitrate=5750 / ratetol=1.0 / qcomp=0.60 / qpmin=0 / qpmax=69 / qpstep=4 / ip_ratio=1.40 / aq=1:1.00
Default                        : Yes
Forced                         : No
Color range                    : Limited
Color primaries                : BT.709
Transfer characteristics       : BT.709
Matrix coefficients            : BT.709

Audio
ID                             : 2
Format                         : DTS
Format/Info                    : Digital Theater Systems
Codec ID                       : A_DTS
Duration                       : 2 h 24 min
Bit rate mode                  : Constant
Bit rate                       : 1 509 kb/s
Channel(s)                     : 6 channels
Channel layout                 : C L R Ls Rs LFE
Sampling rate                  : 48.0 kHz
Frame rate                     : 93.750 FPS (512 SPF)
Bit depth                      : 24 bits
Compression mode               : Lossy
Stream size                    : 1.52 GiB (21%)
Title                          : AntDnp
Language                       : Tamil
Default                        : Yes
Forced                         : No

Menu
00:00:00.000                   : :Chapter 01
00:01:00.435                   : :Chapter 02
00:12:52.688                   : :Chapter 03
00:27:37.238                   : :Chapter 04
00:37:24.909                   : :Chapter 05
00:47:10.869                   : :Chapter 06
01:00:21.284                   : :Chapter 07
01:18:42.050                   : :Chapter 08
01:28:21.629                   : :Chapter 09
01:35:07.618                   : :Chapter 10
01:54:01.668                   : :Chapter 11
02:06:00.886                   : :Chapter 12
02:15:16.900                   : :Chapter 13
02:24:35.583                   : :Chapter 14

资源速度为零或资源敏感被和谐时,推荐使用qBittorrent等下载软件,有条件的推荐115更好的下载软件!

下载地址:


****此区域为收费内容****    需支付 9 金币后可查看立即购买






上一篇:斯图神父 / Father Stu (2022) 4K高清版本下载
下一篇:神奇动物:邓布利多之谜(内封中字) (2022) 4K高清版本下载
回复

使用道具 举报

62

主题

1498

帖子

4374

积分

4K家园VIP

Rank: 9Rank: 9Rank: 9

积分
4374
发表于 2022-5-30 10:53:37 | 显示全部楼层
感谢分享
回复 支持 反对

使用道具 举报

52

主题

1481

帖子

4273

积分

4K家园VIP

Rank: 9Rank: 9Rank: 9

积分
4273
发表于 2022-5-31 14:25:54 | 显示全部楼层
前排支持下
回复 支持 反对

使用道具 举报

0

主题

75

帖子

3440

积分

中级会员

Rank: 4

积分
3440
发表于 2022-5-31 15:34:54 | 显示全部楼层
印度电影好看!
回复 支持 反对

使用道具 举报

0

主题

1362

帖子

4100

积分

4K家园VIP

Rank: 9Rank: 9Rank: 9

积分
4100
发表于 2022-6-2 03:37:24 来自手机 | 显示全部楼层
我只是看看啊,不说话
回复 支持 反对

使用道具 举报

49

主题

1536

帖子

4440

积分

4K家园VIP

Rank: 9Rank: 9Rank: 9

积分
4440
发表于 2022-6-2 13:37:24 | 显示全部楼层
你们要是有4K资源记得分享,别小气
回复 支持 反对

使用道具 举报

42

主题

1523

帖子

4381

积分

4K家园VIP

Rank: 9Rank: 9Rank: 9

积分
4381
发表于 2022-6-4 23:03:26 来自手机 | 显示全部楼层
看起来好像不错的样子
回复 支持 反对

使用道具 举报

您需要登录后才可以回帖 登录 | 立即注册

本版积分规则

精彩图文
Archiver|手机版|TAG|Sitemap|新帖|专题|联系我们:邮箱: 4kjia.com@gmail.com   

4k家园   ©2019