大食谱 / One.Big.Recipe (2021)/第一季8集全/ 4K高清版本下载

[复制链接]

203

主题

226

帖子

2233

积分

版主

Rank: 7Rank: 7Rank: 7

积分
2233
 楼主| 发表于 2022-5-30 15:19:58 | 显示全部楼层 |阅读模式
MV5BMjRjYzE4OWQtMjZjMi00YmQ1LTkzYTgtYTk4OGVkNDI2MWE3XkEyXkFqcGdeQXVyNzExOTcyODQ@.jpg

◎译  名 大食谱
◎片  名 One.Big.Recipe
◎年  代 2021
◎产  地 加拿大
◎类  别 纪录片
◎语  言 英语
◎上映日期 2021年5月31日(加拿大)
◎IMDb评分  0/10 from 0 users
◎IMDb链接  https://www.imdb.com/title/tt14406694/
◎集  数 8
◎主  演 金伯利·拉卢兹 Kimberly Lallouz



◎简  介


      必须在四个不同的页面上处理四个食谱并弄清楚如何一次完成所有食谱的想法可能很复杂,有时会让家庭厨师感到困惑。在一个大食谱中,主持人兼厨师金伯利将所有食谱结合起来,并将其提炼成一份主列表。厨师金伯利选择平衡口味、质地和温度的食谱,并着眼于呈现给它餐厅的惊喜因素。通过组合和

Video
ID : 1
Format : HEVC
Format/Info : High Efficiency Video Coding
Format profile : Main 10@L5@High
Codec ID : V_MPEGH/ISO/HEVC
Duration : 46 min 2 s
Bit rate : 12.6 Mb/s
Width : 3 840 pixels
Height : 2 160 pixels
Display aspect ratio : 16:9
Frame rate mode : Constant
Frame rate : 29.970 (30000/1001) FPS
Color space : YUV
Chroma subsampling : 4:2:0
Bit depth : 10 bits
Bits/(Pixel*Frame) : 0.051
Stream size : 4.05 GiB (97%)
Language : English
Default : Yes
Forced : No
Color range : Limited
Color primaries : BT.709
Transfer characteristics : BT.709
Matrix coefficients : BT.709

Audio
ID : 2
Format : AC-3
Format/Info : Audio Coding 3
Commercial name : Dolby Digital
Codec ID : A_AC3
Duration : 46 min 2 s
Bit rate mode : Constant
Bit rate : 384 kb/s
Channel(s) : 6 channels
Channel layout : L R C LFE Ls Rs
Sampling rate : 48.0 kHz
Frame rate : 31.250 FPS (1536 SPF)
Compression mode : Lossy
Stream size : 126 MiB (3%)
Language : English
Service kind : Complete Main
Default : Yes
Forced : No

Text #1
ID : 3
Format : UTF-8
Codec ID : S_TEXT/UTF8
Codec ID/Info : UTF-8 Plain Text
Duration : 45 min 19 s
Bit rate : 69 b/s
Count of elements : 548
Stream size : 23.0 KiB (0%)
Language : English
Default : No
Forced : No

Text #2
ID : 4
Format : UTF-8
Codec ID : S_TEXT/UTF8
Codec ID/Info : UTF-8 Plain Text
Duration : 45 min 29 s
Bit rate : 151 b/s
Count of elements : 708
Stream size : 50.3 KiB (0%)
Title : SDH
Language : English
Default : No
Forced : No
下载地址:

游客,如果您要查看本帖隐藏内容请回复






上一篇:史前星球(简繁粤中字)(2022)/第一季5集全 / 4K高清版本下载
下一篇:古代文明与科学 (2016) / 第一季3集全/ 4K高清版本下载
回复

使用道具 举报

2

主题

1411

帖子

4085

积分

4K家园VIP

Rank: 9Rank: 9Rank: 9

积分
4085
发表于 2022-5-30 15:20:16 | 显示全部楼层
正好需要啊
回复 支持 反对

使用道具 举报

2

主题

1410

帖子

4252

积分

4K家园VIP

Rank: 9Rank: 9Rank: 9

积分
4252
发表于 2022-5-30 16:04:41 来自手机 | 显示全部楼层
没人回帖。。。我来个吧
回复 支持 反对

使用道具 举报

48

主题

1514

帖子

4360

积分

4K家园VIP

Rank: 9Rank: 9Rank: 9

积分
4360
发表于 2022-5-30 23:54:31 来自手机 | 显示全部楼层
小白一个 顶一下
回复 支持 反对

使用道具 举报

1

主题

1220

帖子

3682

积分

4K家园VIP

Rank: 9Rank: 9Rank: 9

积分
3682
发表于 2022-5-31 02:24:00 | 显示全部楼层
回复 支持 反对

使用道具 举报

5

主题

1706

帖子

4724

积分

4K家园VIP

Rank: 9Rank: 9Rank: 9

积分
4724
发表于 2022-5-31 03:09:02 | 显示全部楼层
呵呵。。。
回复 支持 反对

使用道具 举报

0

主题

15

帖子

348

积分

新手上路

Rank: 1

积分
348
发表于 2022-9-6 16:59:31 | 显示全部楼层
真不错啊,加油加油
回复 支持 反对

使用道具 举报

您需要登录后才可以回帖 登录 | 立即注册

本版积分规则

精彩图文
Archiver|手机版|TAG|Sitemap|新帖|专题|联系我们:邮箱: 4kjia.com@gmail.com   

4k家园   ©2019