肖尔西 / Shoresy (2022)/第一季6集全/ 4K高清版本下载

[复制链接]

154

主题

175

帖子

1746

积分

版主

Rank: 7Rank: 7Rank: 7

积分
1746
 楼主| 发表于 2022-5-30 15:43:53 | 显示全部楼层 |阅读模式
p2872133061.webp_副本.jpg

◎片  名 Shoresy
◎年  代 2022
◎产  地 美国
◎类  别 喜剧
◎语  言 英语
◎上映日期 2022-05-27(美国)
◎IMDb评分  8.5/10 from 1101 users
◎IMDb链接  https://www.imdb.com/title/tt18249282/
◎豆瓣评分 /10 from 0 users
◎豆瓣链接 https://douban.com/subject/35771091/
◎编  剧 杰瑞德·基苏 Jared Keeso
                  塔斯亚·特莱斯 Tasya Teles
                  哈兰·布莱恩·凯特瓦哈特 Harlan Blayne Kytwayhat
                  布莱尔·拉莫拉 Blair Lamora
                  Keilani Elizabeth Rose Keilani Elizabeth Rose
                  瑞安·麦克唐纳 Ryan McDonell
                  卡米尔·苏利文 Camille Sullivan
                  乔恩·米拉斯蒂 Jon Mirasty
                  布兰登·诺兰 Brandon Nolan
                  乔丹·诺兰 Jordan Nolan
                  伯克卡·扎邦 Bourke Cazabon
                  特里·瑞安 Terry Ryan
                  金·克鲁尔 Kim Cloutier
                  Max Bouffard Max Bouffard
                  乔纳森·伊斯梅尔·迪亚比 Jonathan-Ismaël Diaby
                  乔恩·安布罗斯 Jon Ambrose


◎简  介


  看到这个满嘴脏话、叽叽喳喳地发球、热爱母亲、粉丝们最喜欢的角色Shoresy,加入了萨德伯里的一支AAA级曲棍球队,寻求永不再输。
Video
ID : 1
Format : HEVC
Format/Info : High Efficiency Video Coding
Format profile : Main 10@L5@High
Codec ID : V_MPEGH/ISO/HEVC
Duration : 30 min 10 s
Bit rate : 11.9 Mb/s
Width : 3 840 pixels
Height : 2 160 pixels
Display aspect ratio : 16:9
Frame rate mode : Constant
Frame rate : 23.976 (24000/1001) FPS
Color space : YUV
Chroma subsampling : 4:2:0
Bit depth : 10 bits
Bits/(Pixel*Frame) : 0.060
Stream size : 2.50 GiB (97%)
Language : English
Default : Yes
Forced : No
Color range : Limited
Color primaries : BT.709
Transfer characteristics : BT.709
Matrix coefficients : BT.709

Audio
ID : 2
Format : AC-3
Format/Info : Audio Coding 3
Commercial name : Dolby Digital
Codec ID : A_AC3
Duration : 30 min 10 s
Bit rate mode : Constant
Bit rate : 384 kb/s
Channel(s) : 6 channels
Channel layout : L R C LFE Ls Rs
Sampling rate : 48.0 kHz
Frame rate : 31.250 FPS (1536 SPF)
Compression mode : Lossy
Stream size : 82.9 MiB (3%)
Language : English
Service kind : Complete Main
Default : Yes
Forced : No

Text #1
ID : 3
Format : UTF-8
Codec ID : S_TEXT/UTF8
Codec ID/Info : UTF-8 Plain Text
Duration : 29 min 9 s
Bit rate : 96 b/s
Count of elements : 438
Stream size : 20.7 KiB (0%)
Language : English
Default : No
Forced : No

Text #2
ID : 4
Format : UTF-8
Codec ID : S_TEXT/UTF8
Codec ID/Info : UTF-8 Plain Text
Duration : 29 min 9 s
Bit rate : 194 b/s
Count of elements : 533
Stream size : 41.5 KiB (0%)
Title : SDH
Language : English
Default : No
Forced : No

下载地址: 


游客,如果您要查看本帖隐藏内容请回复





上一篇:超级侦探海莉(简繁粤中字)(2021)/第一季10集全/4K高清版本下载
下一篇:手枪 / Pistol (2022) / 第一季6集全/ 4K高清版本下载
回复

使用道具 举报

58

主题

1562

帖子

4496

积分

4K家园VIP

Rank: 9Rank: 9Rank: 9

积分
4496
发表于 2022-5-30 15:44:49 | 显示全部楼层
感谢分享
回复 支持 反对

使用道具 举报

4

主题

1669

帖子

4577

积分

4K家园VIP

Rank: 9Rank: 9Rank: 9

积分
4577
发表于 2022-5-31 11:29:47 | 显示全部楼层
不错 支持下
回复 支持 反对

使用道具 举报

1

主题

1384

帖子

3994

积分

4K家园VIP

Rank: 9Rank: 9Rank: 9

积分
3994
发表于 2022-6-1 11:41:19 来自手机 | 显示全部楼层
回复 支持 反对

使用道具 举报

0

主题

2

帖子

13

积分

新手上路

Rank: 1

积分
13
发表于 2022-6-2 08:46:55 | 显示全部楼层
1111111111111
回复 支持 反对

使用道具 举报

67

主题

1548

帖子

4462

积分

4K家园VIP

Rank: 9Rank: 9Rank: 9

积分
4462
发表于 2022-6-3 14:15:15 | 显示全部楼层
好帖必须得顶起
回复 支持 反对

使用道具 举报

41

主题

1531

帖子

4425

积分

4K家园VIP

Rank: 9Rank: 9Rank: 9

积分
4425
发表于 2022-6-4 13:30:10 | 显示全部楼层
回复 支持 反对

使用道具 举报

您需要登录后才可以回帖 登录 | 立即注册

本版积分规则

精彩图文
Archiver|手机版|TAG|Sitemap|新帖|专题|联系我们:邮箱: 4kjia.com@gmail.com   

4k家园   ©2019