[4K电影] 地心抢险记 (简繁中字) / The Core (2003) 4K高清版本下载

[复制链接]

1868

主题

2007

帖子

1万

积分

超级版主

Rank: 8Rank: 8

积分
15027
 楼主| 发表于 2022-5-31 16:59:37 | 显示全部楼层 |阅读模式
本帖最后由 最爱4K哟 于 2022-5-31 17:07 编辑

QQ图片20220531163159_副本.png

◎译  名 地心抢险记/地心末日/地心浩劫/地心毁灭
◎片  名 The Core
◎年  代 2003
◎产  地 美国/德国/加拿大/英国/意大利/法国
◎类  别 动作/科幻/冒险
◎语  言 英语/法语
◎上映日期 2003-06-27(中国大陆)/2003-03-28(美国)
◎IMDb评分  5.5/10 from 98630 users
◎IMDb链接  https://www.imdb.com/title/tt0298814/
◎豆瓣评分 6.8/10 from 25795 users
◎豆瓣链接 https://movie.douban.com/subject/1300092/
◎导  演 乔恩·阿米尔 Jon Amiel
◎编  剧 约翰·罗杰斯 John Rogers
◎主  演 艾伦·艾克哈特 Aaron Eckhart
       希拉里·斯万克 Hilary Swank
       德尔罗伊·林多 Delroy Lindo
       斯坦利·图齐 Stanley Tucci
       DJ·考尔斯 DJ Qualls
       理查德·詹金斯 Richard Jenkins
       切基·卡尤 Tchéky Karyo
       布鲁斯·格林伍德 Bruce Greenwood
       阿尔法·伍达德 Alfre Woodard
       克里斯托弗·谢尔 Christopher Shyer
       雷·加莱蒂 Ray Galletti
       雷克哈·莎尔玛 Rekha Sharma
       汤姆·斯科尔特 Tom Scholte
       艾琳·佩德 Eileen Pedde
       格伦·莫肖尔 Glenn Morshower
       安东尼·哈里森 Anthony Harrison
       妮可·勒鲁 Nicole Leroux
       弗雷德·埃瓦努伊克 Fred Ewanuick
       赫罗斯加·马修斯 Hrothgar Mathews
       史恩·格林 Shawn Green
       詹妮弗·斯宾塞 Jennifer Spence
       马特·温斯顿 Matt Winston
       劳里·默多克 Laurie Murdoch
       Lenie Scoffié Lenie Scoffié
       罗伯特·曼尼托皮斯 Robert Manitopyes
       亚历山大·阿贝伦 Alejandro Abellan
       本杰明·巴顿 Benjamin Barton
       杰弗里·高德 Jeffrey Gold
       安吉丽卡·海登 Angelica Hayden
       Alec Medlock Alec Medlock
       丹·奥利沃Dan Olivo
       阿隆索·奥亚祖恩 Alonso Oyarzun
       普里西拉·波兰 Priscilla Poland
       Ryan Poland Ryan Poland
       迪翁·约翰斯通 Dion Johnstone
       万娜·邦塔 Vanna Bonta


◎简  介


  某天,世界各地接连出现奇怪现象:安装心脏起搏器的病人突然暴亡、鸽子迷失方向四处乱撞、金门大桥断裂、罗马竞技场遭到密集雷电袭击……一时间,人类陷入前所未有的恐慌,似乎恐怖的世界末日就在眼前。各国政府及军队紧急动员,急切找到这一连串灾难发生的原因。
  在这关键时刻,地质物理学家乔许·凯斯(艾伦·艾克哈特 Aaron Eckhart 饰)探明真相,原来地核因某种未知的原因停止转动,导致磁场消失。为了拯救人类和地球,乔许以及蕾贝卡·柴德(希拉里·斯万克 Hilary Swank 饰)、罗伯特·艾维森(布鲁斯·格林伍德 Bruce Greenwood 饰)等专家组成一支救援小组,共同前往地球中心实行艰巨而充满危险的拯救任务。人类的命运命悬一线……
Video
ID : 1
Format : HEVC
Format/Info : High Efficiency Video Coding
Format profile : Main 10@L5@High
HDR format : SMPTE ST 2086, HDR10 compatible
Codec ID : V_MPEGH/ISO/HEVC
Duration : 2 h 14 min
Bit rate : 14.4 Mb/s
Width : 3 840 pixels
Height : 2 160 pixels
Display aspect ratio : 16:9
Frame rate mode : Constant
Frame rate : 23.976 (24000/1001) FPS
Color space : YUV
Chroma subsampling : 4:2:0
Bit depth : 10 bits
Bits/(Pixel*Frame) : 0.072
Stream size : 13.5 GiB (83%)
Default : Yes
Forced : No
Color range : Limited
Color primaries : BT.2020
Transfer characteristics : PQ
Matrix coefficients : BT.2020 non-constant
Mastering display color primaries : Display P3
Mastering display luminance : min: 0.0050 cd/m2, max: 1000 cd/m2
Maximum Content Light Level : 4133 cd/m2
Maximum Frame-Average Light Level : 878 cd/m2

Audio #1
ID : 2
Format : DTS XLL
Format/Info : Digital Theater Systems
Commercial name : DTS-HD Master Audio
Codec ID : A_DTS
Duration : 2 h 14 min
Bit rate mode : Variable
Bit rate : 2 514 kb/s
Channel(s) : 6 channels
Channel layout : C L R Ls Rs LFE
Sampling rate : 48.0 kHz
Frame rate : 93.750 FPS (512 SPF)
Bit depth : 24 bits
Compression mode : Lossless
Delay relative to video : 7 ms
Stream size : 2.37 GiB (15%)
Title : DTS-HD MA 5.1
Language : English
Default : Yes
Forced : No

Audio #2
ID : 3
Format : E-AC-3
Format/Info : Enhanced AC-3
Commercial name : Dolby Digital Plus
Codec ID : A_EAC3
Duration : 2 h 14 min
Bit rate mode : Constant
Bit rate : 384 kb/s
Channel(s) : 6 channels
Channel layout : L R C LFE Ls Rs
Sampling rate : 48.0 kHz
Frame rate : 31.250 FPS (1536 SPF)
Compression mode : Lossy
Stream size : 371 MiB (2%)
Language : English
Service kind : Complete Main
Default : No
Forced : No

Text #1
ID : 4
Format : UTF-8
Codec ID : S_TEXT/UTF8
Codec ID/Info : UTF-8 Plain Text
Duration : 2 h 7 min
Bit rate : 63 b/s
Count of elements : 1773
Stream size : 59.2 KiB (0%)
Language : English
Default : Yes
Forced : No

Text #2
ID : 5
Format : UTF-8
Codec ID : S_TEXT/UTF8
Codec ID/Info : UTF-8 Plain Text
Duration : 2 h 9 min
Bit rate : 67 b/s
Count of elements : 1945
Stream size : 63.4 KiB (0%)
Title : SDH
Language : English
Default : No
Forced : No

Text #3
ID : 6
Format : UTF-8
Codec ID : S_TEXT/UTF8
Codec ID/Info : UTF-8 Plain Text
Duration : 2 h 14 min
Bit rate : 43 b/s
Count of elements : 1363
Stream size : 42.6 KiB (0%)
Title : francais
Language : French
Default : No
Forced : No

Text #4
ID : 7
Format : UTF-8
Codec ID : S_TEXT/UTF8
Codec ID/Info : UTF-8 Plain Text
Duration : 2 h 14 min
Bit rate : 53 b/s
Count of elements : 1501
Stream size : 52.8 KiB (0%)
Title : Deutsch
Language : German
Default : No
Forced : No

Text #5
ID : 8
Format : UTF-8
Codec ID : S_TEXT/UTF8
Codec ID/Info : UTF-8 Plain Text
Duration : 2 h 14 min
Bit rate : 58 b/s
Count of elements : 1546
Stream size : 57.5 KiB (0%)
Title : Espanol
Language : Spanish
Default : No
Forced : No

Text #6
ID : 9
Format : UTF-8
Codec ID : S_TEXT/UTF8
Codec ID/Info : UTF-8 Plain Text
Duration : 2 h 4 min
Bit rate : 54 b/s
Count of elements : 1334
Stream size : 49.4 KiB (0%)
Title : Italiano
Language : Italian
Default : No
Forced : No

Text #7
ID : 10
Format : UTF-8
Codec ID : S_TEXT/UTF8
Codec ID/Info : UTF-8 Plain Text
Duration : 2 h 5 min
Bit rate : 50 b/s
Count of elements : 1271
Stream size : 46.6 KiB (0%)
Title : Portugues
Language : Portuguese
Default : No
Forced : No

Text #8
ID : 11
Format : UTF-8
Codec ID : S_TEXT/UTF8
Codec ID/Info : UTF-8 Plain Text
Duration : 2 h 4 min
Bit rate : 50 b/s
Count of elements : 1253
Stream size : 45.8 KiB (0%)
Title : Polski
Language : Polish
Default : No
Forced : No

Text #9
ID : 12
Format : UTF-8
Codec ID : S_TEXT/UTF8
Codec ID/Info : UTF-8 Plain Text
Duration : 2 h 13 min
Bit rate : 54 b/s
Count of elements : 1544
Stream size : 53.5 KiB (0%)
Title : Dansk
Language : Danish
Default : No
Forced : No

Text #10
ID : 13
Format : UTF-8
Codec ID : S_TEXT/UTF8
Codec ID/Info : UTF-8 Plain Text
Duration : 2 h 13 min
Bit rate : 49 b/s
Count of elements : 1459
Stream size : 48.6 KiB (0%)
Title : Suomi
Language : Finnish
Default : No
Forced : No

Text #11
ID : 14
Format : UTF-8
Codec ID : S_TEXT/UTF8
Codec ID/Info : UTF-8 Plain Text
Duration : 2 h 13 min
Bit rate : 51 b/s
Count of elements : 1545
Stream size : 50.9 KiB (0%)
Title : Norsk
Language : Norwegian
Default : No
Forced : No

Text #12
ID : 15
Format : UTF-8
Codec ID : S_TEXT/UTF8
Codec ID/Info : UTF-8 Plain Text
Duration : 2 h 13 min
Bit rate : 56 b/s
Count of elements : 1519
Stream size : 55.2 KiB (0%)
Title : Svenska
Language : Swedish
Default : No
Forced : No

Text #13
ID : 16
Format : UTF-8
Codec ID : S_TEXT/UTF8
Codec ID/Info : UTF-8 Plain Text
Duration : 2 h 5 min
Bit rate : 53 b/s
Count of elements : 1252
Stream size : 48.7 KiB (0%)
Title : Turkshh
Language : Turkish
Default : No
Forced : No

Text #14
ID : 17
Format : UTF-8
Codec ID : S_TEXT/UTF8
Codec ID/Info : UTF-8 Plain Text
Duration : 2 h 6 min
Bit rate : 108 b/s
Count of elements : 1613
Stream size : 100 KiB (0%)
Title : Russian
Language : Russian
Default : No
Forced : No

Text #15
ID : 18
Format : UTF-8
Codec ID : S_TEXT/UTF8
Codec ID/Info : UTF-8 Plain Text
Duration : 2 h 5 min
Bit rate : 85 b/s
Count of elements : 1272
Stream size : 78.3 KiB (0%)
Title : Arabic
Language : Arabic
Default : No
Forced : No

Text #16
ID : 19
Format : UTF-8
Codec ID : S_TEXT/UTF8
Codec ID/Info : UTF-8 Plain Text
Duration : 2 h 13 min
Bit rate : 79 b/s
Count of elements : 1692
Stream size : 77.8 KiB (0%)
Title : Hebrew
Language : Hebrew
Default : No
Forced : No

Text #17
ID : 20
Format : UTF-8
Codec ID : S_TEXT/UTF8
Codec ID/Info : UTF-8 Plain Text
Duration : 2 h 13 min
Bit rate : 137 b/s
Count of elements : 1593
Stream size : 135 KiB (0%)
Title : Hindi
Language : Hindi
Default : No
Forced : No

Text #18
ID : 21
Format : UTF-8
Codec ID : S_TEXT/UTF8
Codec ID/Info : UTF-8 Plain Text
Duration : 2 h 4 min
Bit rate : 176 b/s
Count of elements : 1612
Stream size : 161 KiB (0%)
Title : Telugu
Language : Telugu
Default : No
Forced : No

Text #19
ID : 22
Format : UTF-8
Codec ID : S_TEXT/UTF8
Codec ID/Info : UTF-8 Plain Text
Duration : 2 h 6 min
Bit rate : 151 b/s
Count of elements : 1615
Stream size : 141 KiB (0%)
Title : Tamil
Language : Tamil
Default : No
Forced : No

Text #20
ID : 23
Format : UTF-8
Codec ID : S_TEXT/UTF8
Codec ID/Info : UTF-8 Plain Text
Duration : 2 h 5 min
Bit rate : 39 b/s
Count of elements : 1243
Stream size : 36.6 KiB (0%)
Title : 中文(简体)
Language : 中文
Default : No
Forced : No


Text #21
ID : 24
Format : UTF-8
Codec ID : S_TEXT/UTF8
Codec ID/Info : UTF-8 Plain Text
Duration : 2 h 4 min
Bit rate : 39 b/s
Count of elements : 1242
Stream size : 36.3 KiB (0%)
Title : 中文(繁体)
Language : 中文
Default : No
Forced : No

Text #22
ID : 25
Format : UTF-8
Codec ID : S_TEXT/UTF8
Codec ID/Info : UTF-8 Plain Text
Duration : 2 h 4 min
Bit rate : 45 b/s
Count of elements : 1522
Stream size : 41.8 KiB (0%)
Title : Japanese
Language : Japanese
Default : No
Forced : No

Text #23
ID : 26
Format : UTF-8
Codec ID : S_TEXT/UTF8
Codec ID/Info : UTF-8 Plain Text
Duration : 2 h 4 min
Bit rate : 54 b/s
Count of elements : 1268
Stream size : 49.9 KiB (0%)
Title : Korean
Language : Korean
Default : No
Forced : No

Text #24
ID : 27
Format : UTF-8
Codec ID : S_TEXT/UTF8
Codec ID/Info : UTF-8 Plain Text
Duration : 2 h 13 min
Bit rate : 55 b/s
Count of elements : 1591
Stream size : 54.3 KiB (0%)
Title : Indonesian
Language : Indonesian
Default : No
Forced : No

Menu
00:00:00.000 : en:1. Unexplained Deaths
00:07:12.807 : en:2. Frenzied Birds
00:11:08.376 : en:3. Endeavor Landing
00:18:15.260 : en:4. Government Secrets
00:27:57.342 : en:5. Unobtainium
00:32:53.972 : en:6. Help From the Rat
00:35:58.489 : en:7. The Crew
00:40:12.993 : en:8. Preparing for the Mission
00:47:26.760 : en:9. Superstorm
00:50:08.463 : en:10. Virgil Is Launched
01:01:19.425 : en:11. Giant Gem Bubble
01:11:50.264 : en:12. Serge
01:22:25.899 : en:13. Project Destiny
01:29:28.196 : en:14. EM Tear
01:33:43.034 : en:15. Plan D
01:39:00.643 : en:16. Worth Dying For
01:44:38.355 : en:17. Stones in the Pond
01:52:21.109 : en:18. Healing the Earth
01:58:07.246 : en:19. Saved by Whales
02:03:57.972 : en:20. Unsung Heroes
02:06:11.438 : en:21. End Credits

迅雷下载资源速度为零,资源敏感或被和谐时,推荐使用qBittorrent等无限速下载软件,有条件的推荐115更好的下载软件!

下载地址



游客,如果您要查看本帖隐藏内容请回复

游客,如果您要查看本帖隐藏内容请回复





上一篇:神奇动物:邓布利多之谜(内封中字) (2022) 4K高清版本下载
下一篇:凶火 / Firestarter (2022) 4K高清版本下载
回复

使用道具 举报

4

主题

1428

帖子

4120

积分

中级会员

Rank: 4

积分
4120
发表于 2022-5-31 16:59:43 | 显示全部楼层
都不知道说的啥
回复 支持 反对

使用道具 举报

1

主题

1315

帖子

3763

积分

4K家园VIP

Rank: 9Rank: 9Rank: 9

积分
3763
发表于 2022-5-31 19:25:31 | 显示全部楼层
秀起来~
回复 支持 反对

使用道具 举报

0

主题

19

帖子

63

积分

新手上路

Rank: 1

积分
63
发表于 2022-6-1 09:48:24 | 显示全部楼层
6666
回复

使用道具 举报

50

主题

1459

帖子

4187

积分

4K家园VIP

Rank: 9Rank: 9Rank: 9

积分
4187
发表于 2022-6-1 11:52:22 | 显示全部楼层
我也来顶一下..
回复 支持 反对

使用道具 举报

0

主题

3

帖子

28

积分

新手上路

Rank: 1

积分
28
发表于 2022-6-1 13:54:18 | 显示全部楼层
7.972 : en:20. Unsung He
回复 支持 反对

使用道具 举报

0

主题

381

帖子

2331

积分

注册会员

Rank: 2

积分
2331
发表于 2022-6-2 11:26:33 | 显示全部楼层
谢谢楼主分享
回复 支持 反对

使用道具 举报

4

主题

1725

帖子

4795

积分

4K家园VIP

Rank: 9Rank: 9Rank: 9

积分
4795
发表于 2022-6-2 12:50:46 | 显示全部楼层
撸过
回复 支持 反对

使用道具 举报

0

主题

1

帖子

6

积分

新手上路

Rank: 1

积分
6
发表于 2022-6-2 13:49:10 | 显示全部楼层

real live camera

real live camera
回复 支持 反对

使用道具 举报

2

主题

1430

帖子

4128

积分

中级会员

Rank: 4

积分
4128
发表于 2022-6-2 15:08:47 | 显示全部楼层
回复 支持 反对

使用道具 举报

您需要登录后才可以回帖 登录 | 立即注册

本版积分规则

精彩图文
Archiver|手机版|TAG|Sitemap|新帖|专题|联系我们:邮箱: 4kjia.com@gmail.com   

4k家园   ©2019