[4K电影] 追踪 / Chase (2022) 4K高清版本下载

[复制链接]

1868

主题

2007

帖子

1万

积分

超级版主

Rank: 8Rank: 8

积分
15027
 楼主| 发表于 2022-6-3 15:18:24 | 显示全部楼层 |阅读模式
p2874025298_副本.jpg

◎译  名 追踪 / Last Seen Alive
◎片  名 Chase
◎年  代 2022
◎产  地 美国
◎类  别 动作 / 惊悚
◎语  言 英语
◎上映日期 2022-05-12(荷兰)
◎IMDb链接 https://www.imdb.com/title/tt15004136/
◎豆瓣链接 https://movie.douban.com/subject/35801705/
◎片  长 95分钟
◎导  演 布莱恩·古德曼 Brian Goodman
◎编  剧 马克·弗里德曼 Marc Frydman
◎演  员 杰拉德·巴特勒 Gerard Butler
       杰米·亚历山大 Jaimie Alexander
       罗伯特·沃克·布兰乔德 Robert Walker Branchaud
       Chip Lane Chip Lane
       马修·R·斯特利 Matthew R. Staley


◎简  介


  威尔·斯潘和妻子丽莎的婚姻已经到达黄昏。一天,当他们前往妻子父母家,路过一家加油站时,妻子竟然神秘失踪了。 这一切让威尔心急如焚,他让当地警察和丽莎的父母不顾一切地找到她,但随着时间的流逝,他成了妻子失踪案的最大嫌疑人...
他必须亲自处理事情,在警察和犯罪双重夹击下,他能找到妻子吗?

Video
ID : 1
Format : HEVC
Format/Info : High Efficiency Video Coding
Format profile : Main 10@L5@High
Codec ID : V_MPEGH/ISO/HEVC
Duration : 1 h 35 min
Bit rate : 20.5 Mb/s
Width : 3 828 pixels
Height : 1 908 pixels
Display aspect ratio : 2.006
Frame rate mode : Constant
Frame rate : 23.976 FPS
Color space : YUV
Chroma subsampling : 4:2:0
Bit depth : 10 bits
Bits/(Pixel*Frame) : 0.117
Stream size : 13.6 GiB (98%)
Language : English
Default : Yes
Forced : No
Color range : Limited
Color primaries : BT.709
Transfer characteristics : BT.709
Matrix coefficients : BT.709

Audio
ID : 2
Format : AC-3
Format/Info : Audio Coding 3
Commercial name : Dolby Digital
Codec ID : A_AC3
Duration : 1 h 35 min
Bit rate mode : Constant
Bit rate : 384 kb/s
Channel(s) : 6 channels
Channel layout : L R C LFE Ls Rs
Sampling rate : 48.0 kHz
Frame rate : 31.250 FPS (1536 SPF)
Compression mode : Lossy
Stream size : 261 MiB (2%)
Language : English
Service kind : Complete Main
Default : Yes
Forced : No

Text #1
ID : 3
Format : UTF-8
Codec ID : S_TEXT/UTF8
Codec ID/Info : UTF-8 Plain Text
Duration : 1 h 30 min
Bit rate : 64 b/s
Count of elements : 1477
Stream size : 43.1 KiB (0%)
Title : SDH
Language : English
Default : No
Forced : No

Text #2
ID : 4
Format : UTF-8
Codec ID : S_TEXT/UTF8
Codec ID/Info : UTF-8 Plain Text
Duration : 1 h 28 min
Bit rate : 57 b/s
Count of elements : 1242
Stream size : 37.0 KiB (0%)
Language : English
Default : No
Forced : No

Menu
00:00:00.000 : Chapter 01
00:01:42.602 : Chapter 02
00:14:45.635 : Chapter 03
00:28:35.965 : Chapter 04
00:39:32.455 : Chapter 05
00:53:52.440 : Chapter 06
01:06:00.126 : Chapter 07
01:15:30.280 : Chapter 08
01:29:11.351 : Chapter 09


资源速度为零或资源敏感被和谐时,推荐使用qBittorrent等下载软件,有条件的推荐115更好的下载软件!

下载地址:


游客,如果您要查看本帖隐藏内容请回复





上一篇:凶火 / Firestarter (2022) 4K高清版本下载
下一篇:火烧岛 / Fire Island (2022) 4K高清版本下载
回复

使用道具 举报

2

主题

1170

帖子

3532

积分

4K家园VIP

Rank: 9Rank: 9Rank: 9

积分
3532
发表于 2022-6-3 15:18:29 | 显示全部楼层
感谢推荐,确实不错
回复 支持 反对

使用道具 举报

40

主题

1547

帖子

4431

积分

4K家园VIP

Rank: 9Rank: 9Rank: 9

积分
4431
发表于 2022-6-3 15:18:29 | 显示全部楼层
回复 支持 反对

使用道具 举报

0

主题

2

帖子

9

积分

新手上路

Rank: 1

积分
9
发表于 2022-6-3 15:39:17 | 显示全部楼层
顶一个 顶一个 顶一个 顶一个
回复 支持 反对

使用道具 举报

0

主题

1229

帖子

3701

积分

4K家园VIP

Rank: 9Rank: 9Rank: 9

积分
3701
发表于 2022-6-3 17:21:33 | 显示全部楼层
感谢推荐,确实不错
回复 支持 反对

使用道具 举报

0

主题

1

帖子

6

积分

新手上路

Rank: 1

积分
6
发表于 2022-6-3 19:57:37 | 显示全部楼层

nude cam sites

nude cam sites
回复 支持 反对

使用道具 举报

1

主题

1395

帖子

4039

积分

4K家园VIP

Rank: 9Rank: 9Rank: 9

积分
4039
发表于 2022-6-4 00:39:54 来自手机 | 显示全部楼层
支持一下楼主发表的内容
回复 支持 反对

使用道具 举报

0

主题

42

帖子

1293

积分

注册会员

Rank: 2

积分
1293
发表于 2022-6-4 07:12:18 | 显示全部楼层
放假可以看个喜欢的电影了。
回复 支持 反对

使用道具 举报

0

主题

1

帖子

6

积分

新手上路

Rank: 1

积分
6
发表于 2022-6-4 19:09:00 | 显示全部楼层
希望不错
回复

使用道具 举报

2

主题

1399

帖子

4219

积分

4K家园VIP

Rank: 9Rank: 9Rank: 9

积分
4219
发表于 2022-6-5 04:07:01 | 显示全部楼层
我也顶起出售广告位
回复 支持 反对

使用道具 举报

您需要登录后才可以回帖 登录 | 立即注册

本版积分规则

精彩图文
Archiver|手机版|TAG|Sitemap|新帖|专题|联系我们:邮箱: 4kjia.com@gmail.com   

4k家园   ©2019