[4K电影] 抓人游戏 (简繁粤中字) / Tag (2018) 4K高清下载

[复制链接]

1868

主题

2007

帖子

1万

积分

超级版主

Rank: 8Rank: 8

积分
15027
 楼主| 发表于 2022-6-3 16:34:20 | 显示全部楼层 |阅读模式
QQ图片20220603162505_副本.png

◎译  名 抓人游戏 / 贴背战(台) / 无捉依因同学会(港) / 标签 / The Tag Brothers
◎片  名 Tag
◎年  代 2018
◎产  地 美国
◎类  别 喜剧
◎语  言 英语
◎上映日期 2018-06-15(美国)
◎IMDb评分  6.5/10 from 130595 users
◎IMDb链接  https://www.imdb.com/title/tt2854926/
◎豆瓣评分 6.7/10 from 13309 users
◎豆瓣链接 https://movie.douban.com/subject/27013111/
◎片  长 100分钟
◎导  演 杰夫·汤姆西奇 Jeff Tomsic
◎编  剧 罗布·麦基特里克 Rob McKittrick / 马克·施泰伦 Mark Steilen
◎演  员 杰瑞米·雷纳 Jeremy Renner
       乔恩·哈姆 Jon Hamm
       艾德·赫尔姆斯 Ed Helms
       安娜贝拉·沃丽丝 Annabelle Wallis
       艾拉·菲舍尔 Isla Fisher
       拉什达·琼斯 Rashida Jones
       莱丝莉·比伯 Leslie Bibb
       杰克·约翰逊 Jake M. Johnson
       布莱恩·丹内利 Brian Dennehy
       汉尼拔·布勒斯 Hannibal Buress
       塞巴斯蒂安·马尼斯科 Sebastian Maniscalco
       诺拉·邓恩 Nora Dunn
       梅丽莎·乐爱伦 Melissa LeEllen
       史蒂夫·伯格 Steve Berg
       玛丽亚·Z·威尔逊 Maria Z. Wilson
       克里斯蒂娜·韦布林 Christina Webling
       玛丽索尔·科雷亚 Marisol Correa
       露西·卡罗尔 Lucie Carroll
       里尔·莱尔·哈瓦瑞 Lil Rel Howery
       文斯·皮萨尼 Vince Pisani
       杰弗里·保罗·瓦伦蒂 JP Valenti


◎简  介


  杰瑞米·雷纳和汉尼拔·布勒斯有望加盟影片《抓人游戏》(Tag),艾德·赫尔姆斯已确定参演,Jeff Tomsic(《一路绕行》)执导,改编自《华尔街时报》报道,讲述一群成人毕业后仍继续读书时的游戏"tag"(你捉我赶,追到人后用手触碰),尽管他们从事各种职业,但每年二月都专门空出来一起抓人,一抓23年。而且比读书时玩得难度更大,因为活动区域不再是操场,而是整个美国。

Video
ID : 1
Format : HEVC
Format/Info : High Efficiency Video Coding
Format profile : Main 10@L5@High
HDR format : Dolby Vision, Version 1.0, dvhe.05.06, BL+RPU
Codec ID : V_MPEGH/ISO/HEVC
Duration : 1 h 40 min
Bit rate : 14.4 Mb/s
Width : 3 840 pixels
Height : 1 608 pixels
Display aspect ratio : 2.40:1
Frame rate mode : Constant
Frame rate : 23.976 (24000/1001) FPS
Color space : YUV
Chroma subsampling : 4:2:0
Bit depth : 10 bits
Bits/(Pixel*Frame) : 0.097
Stream size : 10.1 GiB (78%)
Default : Yes
Forced : No

Audio #1
ID : 2
Format : DTS XLL
Format/Info : Digital Theater Systems
Commercial name : DTS-HD Master Audio
Codec ID : A_DTS
Duration : 1 h 40 min
Bit rate mode : Variable
Bit rate : 3 571 kb/s
Channel(s) : 6 channels
Channel layout : C L R Ls Rs LFE
Sampling rate : 48.0 kHz
Frame rate : 93.750 FPS (512 SPF)
Bit depth : 24 bits
Compression mode : Lossless
Delay relative to video : 3 ms
Stream size : 2.51 GiB (19%)
Title : DTS-HD MA 5.1
Language : English
Default : Yes
Forced : No

Audio #2
ID : 3
Format : AC-3
Format/Info : Audio Coding 3
Commercial name : Dolby Digital
Codec ID : A_AC3
Duration : 1 h 40 min
Bit rate mode : Constant
Bit rate : 384 kb/s
Channel(s) : 6 channels
Channel layout : L R C LFE Ls Rs
Sampling rate : 48.0 kHz
Frame rate : 31.250 FPS (1536 SPF)
Compression mode : Lossy
Stream size : 276 MiB (2%)
Title : DD 5.1
Language : English
Service kind : Complete Main
Default : No
Forced : No

Text #1
ID : 4
Format : UTF-8
Codec ID : S_TEXT/UTF8
Codec ID/Info : UTF-8 Plain Text
Duration : 1 h 39 min
Bit rate : 96 b/s
Count of elements : 2012
Stream size : 70.2 KiB (0%)
Title : English CC
Language : English
Default : Yes
Forced : No

Text #2
ID : 5
Format : UTF-8
Codec ID : S_TEXT/UTF8
Codec ID/Info : UTF-8 Plain Text
Duration : 1 h 40 min
Bit rate : 122 b/s
Count of elements : 1955
Stream size : 89.7 KiB (0%)
Title : Arabic
Language : Arabic
Default : No
Forced : No

Text #3
ID : 6
Format : UTF-8
Codec ID : S_TEXT/UTF8
Codec ID/Info : UTF-8 Plain Text
Duration : 1 h 40 min
Bit rate : 113 b/s
Count of elements : 1925
Stream size : 82.8 KiB (0%)
Title : Bulgarian
Language : Bulgarian
Default : No
Forced : No

Text #4
ID : 7
Format : UTF-8
Codec ID : S_TEXT/UTF8
Codec ID/Info : UTF-8 Plain Text
Duration : 1 h 40 min
Bit rate : 71 b/s
Count of elements : 1955
Stream size : 52.5 KiB (0%)
Title : 中文(简体)
Language : 中午
Default : No
Forced : No

Text #5
ID : 8
Format : UTF-8
Codec ID : S_TEXT/UTF8
Codec ID/Info : UTF-8 Plain Text
Duration : 1 h 39 min
Bit rate : 65 b/s
Count of elements : 1780
Stream size : 48.1 KiB (0%)
Title : 中文(繁体)
Language : 中午
Default : No
Forced : No


Text #6
ID : 9
Format : UTF-8
Codec ID : S_TEXT/UTF8
Codec ID/Info : UTF-8 Plain Text
Duration : 1 h 40 min
Bit rate : 80 b/s
Count of elements : 1923
Stream size : 58.9 KiB (0%)
Title : Czech
Language : Czech
Default : No
Forced : No

Text #7
ID : 10
Format : UTF-8
Codec ID : S_TEXT/UTF8
Codec ID/Info : UTF-8 Plain Text
Duration : 1 h 40 min
Bit rate : 73 b/s
Count of elements : 1269
Stream size : 53.7 KiB (0%)
Title : Danish
Language : Danish
Default : No
Forced : No

Text #8
ID : 11
Format : UTF-8
Codec ID : S_TEXT/UTF8
Codec ID/Info : UTF-8 Plain Text
Duration : 1 h 39 min
Bit rate : 100 b/s
Count of elements : 1935
Stream size : 73.3 KiB (0%)
Title : German
Language : German
Default : No
Forced : No

Text #9
ID : 12
Format : UTF-8
Codec ID : S_TEXT/UTF8
Codec ID/Info : UTF-8 Plain Text
Duration : 1 h 40 min
Bit rate : 129 b/s
Count of elements : 1923
Stream size : 95.0 KiB (0%)
Title : Greek
Language : Greek
Default : No
Forced : No

Text #10
ID : 13
Format : UTF-8
Codec ID : S_TEXT/UTF8
Codec ID/Info : UTF-8 Plain Text
Duration : 1 h 39 min
Bit rate : 81 b/s
Count of elements : 1909
Stream size : 59.5 KiB (0%)
Title : Spanish Latin American
Language : Spanish
Default : No
Forced : No

Text #11
ID : 14
Format : UTF-8
Codec ID : S_TEXT/UTF8
Codec ID/Info : UTF-8 Plain Text
Duration : 1 h 39 min
Bit rate : 84 b/s
Count of elements : 1948
Stream size : 62.2 KiB (0%)
Title : Spanish European
Language : Spanish
Default : No
Forced : No

Text #12
ID : 15
Format : UTF-8
Codec ID : S_TEXT/UTF8
Codec ID/Info : UTF-8 Plain Text
Duration : 1 h 40 min
Bit rate : 77 b/s
Count of elements : 1930
Stream size : 56.6 KiB (0%)
Title : Estonian
Language : Estonian
Default : No
Forced : No

Text #13
ID : 16
Format : UTF-8
Codec ID : S_TEXT/UTF8
Codec ID/Info : UTF-8 Plain Text
Duration : 1 h 39 min
Bit rate : 70 b/s
Count of elements : 1906
Stream size : 51.9 KiB (0%)
Title : Finnish
Language : Finnish
Default : No
Forced : No

Text #14
ID : 17
Format : UTF-8
Codec ID : S_TEXT/UTF8
Codec ID/Info : UTF-8 Plain Text
Duration : 1 h 40 min
Bit rate : 104 b/s
Count of elements : 2348
Stream size : 76.5 KiB (0%)
Title : French Canadian
Language : French
Default : No
Forced : No

Text #15
ID : 18
Format : UTF-8
Codec ID : S_TEXT/UTF8
Codec ID/Info : UTF-8 Plain Text
Duration : 1 h 40 min
Bit rate : 105 b/s
Count of elements : 1910
Stream size : 77.3 KiB (0%)
Title : Hebrew
Language : Hebrew
Default : No
Forced : No

Text #16
ID : 19
Format : UTF-8
Codec ID : S_TEXT/UTF8
Codec ID/Info : UTF-8 Plain Text
Duration : 1 h 40 min
Bit rate : 83 b/s
Count of elements : 1929
Stream size : 61.2 KiB (0%)
Title : Hungarian
Language : Hungarian
Default : No
Forced : No

Text #17
ID : 20
Format : UTF-8
Codec ID : S_TEXT/UTF8
Codec ID/Info : UTF-8 Plain Text
Duration : 1 h 39 min
Bit rate : 61 b/s
Count of elements : 1820
Stream size : 44.7 KiB (0%)
Title : Japanese
Language : Japanese
Default : No
Forced : No

Text #18
ID : 21
Format : UTF-8
Codec ID : S_TEXT/UTF8
Codec ID/Info : UTF-8 Plain Text
Duration : 1 h 39 min
Bit rate : 105 b/s
Count of elements : 1955
Stream size : 77.0 KiB (0%)
Title : Korean
Language : Korean
Default : No
Forced : No

Text #19
ID : 22
Format : UTF-8
Codec ID : S_TEXT/UTF8
Codec ID/Info : UTF-8 Plain Text
Duration : 1 h 40 min
Bit rate : 77 b/s
Count of elements : 1923
Stream size : 57.0 KiB (0%)
Title : Lithuanian
Language : Lithuanian
Default : No
Forced : No

Text #20
ID : 23
Format : UTF-8
Codec ID : S_TEXT/UTF8
Codec ID/Info : UTF-8 Plain Text
Duration : 1 h 40 min
Bit rate : 92 b/s
Count of elements : 1953
Stream size : 67.5 KiB (0%)
Title : Latvian
Language : Latvian
Default : No
Forced : No

Text #21
ID : 24
Format : UTF-8
Codec ID : S_TEXT/UTF8
Codec ID/Info : UTF-8 Plain Text
Duration : 1 h 40 min
Bit rate : 63 b/s
Count of elements : 1444
Stream size : 46.5 KiB (0%)
Title : Dutch
Language : Dutch
Default : No
Forced : No

Text #22
ID : 25
Format : UTF-8
Codec ID : S_TEXT/UTF8
Codec ID/Info : UTF-8 Plain Text
Duration : 1 h 39 min
Bit rate : 88 b/s
Count of elements : 1944
Stream size : 65.0 KiB (0%)
Title : Norwegian
Language : Norwegian
Default : No
Forced : No

Text #23
ID : 26
Format : UTF-8
Codec ID : S_TEXT/UTF8
Codec ID/Info : UTF-8 Plain Text
Duration : 1 h 40 min
Bit rate : 79 b/s
Count of elements : 1916
Stream size : 58.4 KiB (0%)
Title : Polish
Language : Polish
Default : No
Forced : No

Text #24
ID : 27
Format : UTF-8
Codec ID : S_TEXT/UTF8
Codec ID/Info : UTF-8 Plain Text
Duration : 1 h 40 min
Bit rate : 83 b/s
Count of elements : 1920
Stream size : 60.9 KiB (0%)
Title : Portuguese Brazilian
Language : Portuguese
Default : No
Forced : No

Text #25
ID : 28
Format : UTF-8
Codec ID : S_TEXT/UTF8
Codec ID/Info : UTF-8 Plain Text
Duration : 1 h 40 min
Bit rate : 80 b/s
Count of elements : 1912
Stream size : 59.3 KiB (0%)
Title : Portuguese European
Language : Portuguese
Default : No
Forced : No

Text #26
ID : 29
Format : UTF-8
Codec ID : S_TEXT/UTF8
Codec ID/Info : UTF-8 Plain Text
Duration : 1 h 40 min
Bit rate : 132 b/s
Count of elements : 1953
Stream size : 96.7 KiB (0%)
Title : Russian
Language : Russian
Default : No
Forced : No

Text #27
ID : 30
Format : UTF-8
Codec ID : S_TEXT/UTF8
Codec ID/Info : UTF-8 Plain Text
Duration : 1 h 40 min
Bit rate : 71 b/s
Count of elements : 1265
Stream size : 52.1 KiB (0%)
Title : Slovenian
Language : Slovenian
Default : No
Forced : No

Text #28
ID : 31
Format : UTF-8
Codec ID : S_TEXT/UTF8
Codec ID/Info : UTF-8 Plain Text
Duration : 1 h 40 min
Bit rate : 72 b/s
Count of elements : 1894
Stream size : 53.1 KiB (0%)
Title : Swedish
Language : Swedish
Default : No
Forced : No

Text #29
ID : 32
Format : UTF-8
Codec ID : S_TEXT/UTF8
Codec ID/Info : UTF-8 Plain Text
Duration : 1 h 40 min
Bit rate : 207 b/s
Count of elements : 1956
Stream size : 152 KiB (0%)
Title : Thai
Language : Thai
Default : No
Forced : No

Text #30
ID : 33
Format : UTF-8
Codec ID : S_TEXT/UTF8
Codec ID/Info : UTF-8 Plain Text
Duration : 1 h 40 min
Bit rate : 87 b/s
Count of elements : 1923
Stream size : 64.1 KiB (0%)
Title : Turkish
Language : Turkish
Default : No
Forced : No

Text #31
ID : 34
Format : UTF-8
Codec ID : S_TEXT/UTF8
Codec ID/Info : UTF-8 Plain Text
Duration : 1 h 40 min
Bit rate : 72 b/s
Count of elements : 1951
Stream size : 53.4 KiB (0%)
Title : 中文(粤语)
Language : 中文
Default : No
Forced : No


Text #32
ID : 35
Format : PGS
Muxing mode : zlib
Codec ID : S_HDMV/PGS
Codec ID/Info : Picture based subtitle format used on BDs/HD-DVDs
Duration : 1 h 40 min
Bit rate : 60.7 kb/s
Count of elements : 4286
Stream size : 43.5 MiB (0%)
Title : English-PGS
Language : English
Default : No
Forced : No

Text #33
ID : 36
Format : PGS
Muxing mode : zlib
Codec ID : S_HDMV/PGS
Codec ID/Info : Picture based subtitle format used on BDs/HD-DVDs
Duration : 1 h 40 min
Bit rate : 60.3 kb/s
Count of elements : 4694
Stream size : 43.1 MiB (0%)
Title : French-PGS
Language : French
Default : No
Forced : No

Text #34
ID : 37
Format : PGS
Muxing mode : zlib
Codec ID : S_HDMV/PGS
Codec ID/Info : Picture based subtitle format used on BDs/HD-DVDs
Duration : 1 h 40 min
Bit rate : 48.4 kb/s
Count of elements : 3820
Stream size : 34.6 MiB (0%)
Title : Spanish-PGS
Language : Spanish
Default : No
Forced : No

Text #35
ID : 38
Format : PGS
Muxing mode : zlib
Codec ID : S_HDMV/PGS
Codec ID/Info : Picture based subtitle format used on BDs/HD-DVDs
Duration : 1 h 40 min
Bit rate : 50.2 kb/s
Count of elements : 3842
Stream size : 35.9 MiB (0%)
Title : Portuguese-PGS
Language : Portuguese
Default : No
Forced : No

Menu
00:00:00.000 : en:Chapter 01
00:09:24.000 : en:Chapter 02
00:17:04.000 : en:Chapter 03
00:28:18.000 : en:Chapter 04
00:36:56.000 : en:Chapter 05
00:46:15.000 : en:Chapter 06
00:56:28.000 : en:Chapter 07
01:06:09.000 : en:Chapter 08
01:18:02.000 : en:Chapter 09
01:26:30.000 : en:Chapter 10
01:35:55.000 : en:Chapter 11


资源速度为零或资源敏感被和谐时,推荐使用qBittorrent等下载软件,有条件的推荐115更好的下载软件!

下载地址:


游客,如果您要查看本帖隐藏内容请回复

游客,如果您要查看本帖隐藏内容请回复

游客,如果您要查看本帖隐藏内容请回复

游客,如果您要查看本帖隐藏内容请回复



相关其他版本下载:[4K首发资源] 抓人游戏 / Tag (2018) 4K高清下载/10.06GB





上一篇:猎狼犬号 / Wolf.Hound(2022) 4K高清版本下载
下一篇:儿童法案 / The Children Act (2017) 4K高清下载
回复

使用道具 举报

1

主题

1603

帖子

4417

积分

4K家园VIP

Rank: 9Rank: 9Rank: 9

积分
4417
发表于 2022-6-3 16:34:24 | 显示全部楼层
路过
回复 支持 反对

使用道具 举报

40

主题

1502

帖子

4322

积分

4K家园VIP

Rank: 9Rank: 9Rank: 9

积分
4322
发表于 2022-6-3 23:51:26 | 显示全部楼层
怎么这么大,希望我电视能看啊
回复 支持 反对

使用道具 举报

0

主题

1

帖子

6

积分

新手上路

Rank: 1

积分
6
发表于 2022-6-4 01:17:06 来自手机 | 显示全部楼层
路过
回复

使用道具 举报

2

主题

1328

帖子

3834

积分

4K家园VIP

Rank: 9Rank: 9Rank: 9

积分
3834
发表于 2022-6-4 05:49:31 来自手机 | 显示全部楼层
楼猪辛苦了,支持一下分享好资源
回复 支持 反对

使用道具 举报

61

主题

1484

帖子

4276

积分

4K家园VIP

Rank: 9Rank: 9Rank: 9

积分
4276
发表于 2022-6-10 16:24:05 | 显示全部楼层
广告位,,坐下看看
回复 支持 反对

使用道具 举报

1

主题

1418

帖子

4070

积分

4K家园VIP

Rank: 9Rank: 9Rank: 9

积分
4070
发表于 2022-6-11 15:17:43 来自手机 | 显示全部楼层
都不知道说的啥
回复 支持 反对

使用道具 举报

您需要登录后才可以回帖 登录 | 立即注册

本版积分规则

精彩图文
Archiver|手机版|TAG|Sitemap|新帖|专题|联系我们:邮箱: 4kjia.com@gmail.com   

4k家园   ©2019