比利小子 / Billy the Kid (2022)/ 第一季全8集 / 4K高清版本下载

[复制链接]

154

主题

175

帖子

1746

积分

版主

Rank: 7Rank: 7Rank: 7

积分
1746
 楼主| 发表于 2022-6-6 13:33:20 | 显示全部楼层 |阅读模式
本帖最后由 美剧小虾 于 2022-6-6 13:35 编辑

p2872043472_副本.png

◎译  名 比利小子
◎片  名 Billy the Kid
◎年  代 2022
◎产  地 美国
◎类  别 爱情/冒险
◎语  言 英语
◎上映日期 2022-04-24(美国)
◎IMDb评分  6.9/10 from 1548 users
◎IMDb链接  https://www.imdb.com/title/tt14586544/
◎豆瓣评分 0/10 from 0 users
◎豆瓣链接 https://douban.com/subject/35661724/
◎集  数 8
◎导  演 奥图·巴瑟赫斯特 Otto Bathurst
◎编  剧 迈克尔·赫斯特 Michael Hirst
◎主  演 汤姆·布莱斯 Tom Blyth
       丹尼尔·韦伯 Daniel Webber
       艾琳·奥希金斯 Eileen O'Higgins
       达科他·道尔比 Dakota Daulby
       肖恩·O.罗伯茨 Sean O. Roberts
       瑞恩·肯尼迪 Ryan Kennedy
       布莱登·佛雷切 Brendan Fletcher
       西沃恩·威廉姆斯 Siobhan Williams
       查德·洛克 Chad Rook
       肖恩·本森 Shaun Benson
       扎克·圣蒂亚戈 Zak Santiago
       卢克·卡米莱 Luke Camilleri
       文森特·沃尔什 Vincent Walsh
       杰米·比米什 Jamie Beamish
       Taran Vitt Taran Vitt
       克里斯·辛普森 Chris Simpson
       乔伊·巴泰 Joey Batey
       丽莎·钱德勒 Lisa Chandler
       蒂奇·格兰特 Teach Grant
       阿德里安·霍夫 Adrian Hough
       戴维·哈索姆 David Haysom
       马蒂亚斯·雷塔马尔 Mathias Retamal
       E.J. 卡茨 E.J. Katz
       杰夫·汉尼 Jeff Hänni

◎简  介

  这是一次史诗般的浪漫冒险,以比利的一生为基础,从他卑微的爱尔兰血统和早期在美国边境当牛仔和枪手的经历,到他在林肯郡战争及其他战争中的关键角色。

Video
ID : 1
Format : HEVC
Format/Info : High Efficiency Video Coding
Format profile : Main 10@L5@High
Codec ID : V_MPEGH/ISO/HEVC
Duration : 53 min 51 s
Bit rate : 11.8 Mb/s
Width : 3 834 pixels
Height : 1 914 pixels
Display aspect ratio : 2.003
Frame rate mode : Constant
Frame rate : 23.976 FPS
Color space : YUV
Chroma subsampling : 4:2:0
Bit depth : 10 bits
Bits/(Pixel*Frame) : 0.067
Stream size : 4.44 GiB (95%)
Default : Yes
Forced : No
Color range : Limited
Color primaries : BT.709
Transfer characteristics : BT.709
Matrix coefficients : BT.709

Audio
ID : 2
Format : E-AC-3
Format/Info : Enhanced AC-3
Commercial name : Dolby Digital Plus
Codec ID : A_EAC3
Duration : 53 min 51 s
Bit rate mode : Constant
Bit rate : 640 kb/s
Channel(s) : 6 channels
Channel layout : L R C LFE Ls Rs
Sampling rate : 48.0 kHz
Frame rate : 31.250 FPS (1536 SPF)
Compression mode : Lossy
Delay relative to video : 24 ms
Stream size : 247 MiB (5%)
Language : English
Service kind : Complete Main
Default : Yes
Forced : No

Text #1
ID : 3
Format : UTF-8
Codec ID : S_TEXT/UTF8
Codec ID/Info : UTF-8 Plain Text
Duration : 50 min 37 s
Bit rate : 40 b/s
Count of elements : 539
Stream size : 14.9 KiB (0%)
Language : English
Default : Yes
Forced : No

Text #2
ID : 4
Format : UTF-8
Codec ID : S_TEXT/UTF8
Codec ID/Info : UTF-8 Plain Text
Duration : 50 min 49 s
Bit rate : 46 b/s
Count of elements : 668
Stream size : 17.5 KiB (0%)
Title : SDH
Language : English
Default : No
Forced : No

下载地址:

游客,如果您要查看本帖隐藏内容请回复






上一篇:爱卡莉 / iCarly (2021) / 第一季全13集 / 4K高清版本下载
下一篇:埃塞克斯之蛇 (内嵌中字) (2022)/ 第一季全6集/4K高清版本下载
回复

使用道具 举报

2

主题

1423

帖子

4089

积分

4K家园VIP

Rank: 9Rank: 9Rank: 9

积分
4089
发表于 2022-6-6 13:33:49 | 显示全部楼层
一直在看
回复 支持 反对

使用道具 举报

4

主题

1660

帖子

4580

积分

4K家园VIP

Rank: 9Rank: 9Rank: 9

积分
4580
发表于 2022-6-7 03:31:32 | 显示全部楼层
垃圾内容,路过为证。
回复 支持 反对

使用道具 举报

0

主题

13

帖子

193

积分

新手上路

Rank: 1

积分
193
发表于 2022-6-7 08:56:39 | 显示全部楼层
经典之作
回复

使用道具 举报

4

主题

1669

帖子

4577

积分

4K家园VIP

Rank: 9Rank: 9Rank: 9

积分
4577
发表于 2022-6-12 04:10:07 | 显示全部楼层
打酱油的人拉,回复下赚取积分
回复 支持 反对

使用道具 举报

53

主题

1241

帖子

3791

积分

4K家园VIP

Rank: 9Rank: 9Rank: 9

积分
3791
发表于 2022-6-14 03:17:32 | 显示全部楼层
哈哈,我只看看不说话
回复 支持 反对

使用道具 举报

53

主题

1533

帖子

4439

积分

4K家园VIP

Rank: 9Rank: 9Rank: 9

积分
4439
发表于 2022-6-16 06:28:42 | 显示全部楼层
纯粹路过,没任何兴趣,仅仅是看在老用户份上回复一下
回复 支持 反对

使用道具 举报

您需要登录后才可以回帖 登录 | 立即注册

本版积分规则

精彩图文
Archiver|手机版|TAG|Sitemap|新帖|专题|联系我们:邮箱: 4kjia.com@gmail.com   

4k家园   ©2019