[4K电影] 假偶成真 / My Fake Boyfriend (2022) 4K高清版本下载

[复制链接]

2299

主题

2448

帖子

1万

积分

超级版主

Rank: 8Rank: 8

积分
17752
 楼主| 发表于 2022-6-10 13:01:49 | 显示全部楼层 |阅读模式
QQ图片20220610124012_副本.png

◎译  名 假偶成真 / 我的假男友
◎片  名 My Fake Boyfriend
◎年  代 2022
◎产  地 加拿大
◎类  别 喜剧 / 爱情
◎语  言 英语
◎上映日期 2022-06-15(美国网络)
◎IMDb评分  0/10 from 0 users
◎IMDb链接  https://www.imdb.com/title/tt15143222/
◎豆瓣评分 0/10 from 0 users
◎豆瓣链接 https://movie.douban.com/subject/35590609/
◎片  长 124分钟
◎导  演 罗丝·崔奇 Rose Troche
◎编  剧 卢克奥尔布赖特 Luke Albright / 格雷格·博奥尔丁 Greg Boaldin / 乔·万贾伊·罗斯 Joe Wanjai Ross
◎主  演 凯南·朗斯代尔 Keiynan Lonsdale
       迪伦·斯普罗斯 Dylan Sprouse
       萨拉·海蓝德 Sarah Hyland
       布科拉·阿约卡 Bukola Ayoka
                    Tricia Black Tricia Black
                    马修·芬兰 Matthew Finlan
                    Rong Fu  Rong Fu
                    Ty Ippolito Ty Ippolito
                    安德鲁·梅克尔 Andrew Meikle
                    布鲁克·缪尔 Brooker Muir
                    梅尔·内维尔 Merle Newell
                    Rachel Risen Rachel Risen
                    马库斯·罗斯纳 Marcus Rosner
                    萨默·萨利姆 Samer Salem
                    辛恩 Simon Sinn


◎简  介


        在这部电影中,一个处境艰难的年轻人(KeeynanLonsdale)听从了他非传统好友(DylanSprouse)的建议,利用社交媒体制造一个假男友,让他可怕的前情人远离他的生活。但是,当他遇到了他生命中的真爱,并与他的丈夫分手时,一切都适得其反
假男友很难做到。

Video
ID : 1
Format : HEVC
Format/Info : High Efficiency Video Coding
Format profile : Main 10@L5@Main
HDR format : SMPTE ST 2094 App 4, Version 1, HDR10+ Profile B compatible
Codec ID : V_MPEGH/ISO/HEVC
Duration : 1 h 40 min
Bit rate : 14.3 Mb/s
Width : 3 840 pixels
Height : 1 920 pixels
Display aspect ratio : 2.000
Frame rate mode : Constant
Frame rate : 23.976 (24000/1001) FPS
Color space : YUV
Chroma subsampling : 4:2:0
Bit depth : 10 bits
Bits/(Pixel*Frame) : 0.081
Stream size : 10.0 GiB (96%)
Default : Yes
Forced : No
Color range : Limited
Color primaries : BT.2020
Transfer characteristics : PQ
Matrix coefficients : BT.2020 non-constant
Mastering display color primaries : Display P3
Mastering display luminance : min: 0.0001 cd/m2, max: 1000 cd/m2
Maximum Content Light Level : 1017 cd/m2
Maximum Frame-Average Light Level : 455 cd/m2

Audio
ID : 2
Format : E-AC-3
Format/Info : Enhanced AC-3
Commercial name : Dolby Digital Plus
Codec ID : A_EAC3
Duration : 1 h 40 min
Bit rate mode : Constant
Bit rate : 640 kb/s
Channel(s) : 6 channels
Channel layout : L R C LFE Ls Rs
Sampling rate : 48.0 kHz
Frame rate : 31.250 FPS (1536 SPF)
Compression mode : Lossy
Stream size : 459 MiB (4%)
Language : English
Service kind : Complete Main
Default : Yes
Forced : No

Text #1
ID : 3
Format : UTF-8
Codec ID : S_TEXT/UTF8
Codec ID/Info : UTF-8 Plain Text
Duration : 1 h 24 min
Bit rate : 0 b/s
Count of elements : 2
Stream size : 29.0 Bytes (0%)
Title : Forced
Language : English
Default : Yes
Forced : Yes

Text #2
ID : 4
Format : UTF-8
Codec ID : S_TEXT/UTF8
Codec ID/Info : UTF-8 Plain Text
Duration : 1 h 36 min
Bit rate : 86 b/s
Count of elements : 1695
Stream size : 61.2 KiB (0%)
Language : English
Default : No
Forced : No

Text #3
ID : 5
Format : UTF-8
Codec ID : S_TEXT/UTF8
Codec ID/Info : UTF-8 Plain Text
Duration : 1 h 36 min
Bit rate : 92 b/s
Count of elements : 1821
Stream size : 65.5 KiB (0%)
Title : SDH
Language : English
Default : No
Forced : No

Text #4
ID : 6
Format : UTF-8
Codec ID : S_TEXT/UTF8
Codec ID/Info : UTF-8 Plain Text
Duration : 1 h 35 min
Bit rate : 67 b/s
Count of elements : 1482
Stream size : 46.9 KiB (0%)
Title : Latin American
Language : Spanish
Default : No
Forced : No

Text #5
ID : 7
Format : UTF-8
Codec ID : S_TEXT/UTF8
Codec ID/Info : UTF-8 Plain Text
Duration : 1 h 39 min
Bit rate : 61 b/s
Count of elements : 1582
Stream size : 44.6 KiB (0%)
Title : Brazilian
Language : Portuguese
Default : No
Forced : No

Menu
00:00:00.000 : en:Amazon Original
00:00:07.000 : en:Studio Logo
00:00:36.000 : en:Title Sequence
00:00:52.000 : en:Opening Credits
00:02:18.000 : en:Scene 5
00:03:37.000 : en:Scene 6
00:04:37.000 : en:Scene 7
00:05:05.000 : en:Scene 8
00:06:56.000 : en:Scene 9
00:08:30.000 : en:Scene 10
00:09:35.000 : en:Scene 11
00:10:56.000 : en:Scene 12
00:11:29.000 : en:Scene 13
00:12:00.000 : en:Scene 14
00:13:19.000 : en:Scene 15
00:13:40.000 : en:Scene 16
00:14:07.000 : en:Scene 17
00:14:33.000 : en:Scene 18
00:14:53.000 : en:Scene 19
00:16:33.000 : en:Scene 20
00:19:14.000 : en:Scene 21
00:19:53.000 : en:Scene 22
00:20:11.000 : en:Scene 23
00:21:19.000 : en:Scene 24
00:21:28.000 : en:Scene 25
00:23:12.000 : en:Scene 26
00:23:35.000 : en:Scene 27
00:23:56.000 : en:Scene 28
00:27:04.000 : en:Scene 29
00:28:22.000 : en:Scene 30
00:30:32.000 : en:Scene 31
00:31:31.000 : en:Scene 32
00:33:25.000 : en:Scene 33
00:33:37.000 : en:Scene 34
00:35:01.000 : en:Scene 35
00:36:08.000 : en:Scene 36
00:36:46.000 : en:Scene 37
00:37:27.000 : en:Scene 38
00:39:37.000 : en:Scene 39
00:39:56.000 : en:Scene 40
00:45:52.000 : en:Scene 41
00:47:08.000 : en:Scene 42
00:47:40.000 : en:Scene 43
00:49:04.000 : en:Scene 44
00:49:48.000 : en:Scene 45
00:50:15.000 : en:Scene 46
00:52:10.000 : en:Scene 47
00:53:56.000 : en:Scene 48
00:55:15.000 : en:Scene 49
00:56:24.000 : en:Scene 50
00:56:38.000 : en:Scene 51
00:57:20.000 : en:Scene 52
00:57:48.000 : en:Scene 53
00:59:12.000 : en:Scene 54
01:02:28.000 : en:Scene 55
01:05:33.000 : en:Scene 56
01:06:08.000 : en:Scene 57
01:06:22.000 : en:Scene 58
01:07:21.000 : en:Scene 59
01:09:00.000 : en:Scene 60
01:10:58.000 : en:Scene 61
01:13:13.000 : en:Scene 62
01:13:26.000 : en:Scene 63
01:13:38.000 : en:Scene 64
01:14:10.000 : en:Scene 65
01:14:24.000 : en:Scene 66
01:16:21.000 : en:Scene 67
01:17:12.000 : en:Scene 68
01:19:12.000 : en:Scene 69
01:24:06.000 : en:Scene 70
01:24:46.000 : en:Scene 71
01:25:37.000 : en:Scene 72
01:26:57.000 : en:Scene 73
01:28:36.000 : en:Scene 74
01:29:23.000 : en:Scene 75
01:31:01.000 : en:Scene 76
01:31:26.000 : en:Scene 77
01:32:04.000 : en:Scene 78
01:35:38.000 : en:Scene 79
01:35:56.000 : en:Scene 80
01:36:05.000 : en:End Credits

资源速度为零或资源敏感被和谐时,推荐使用qBittorrent等下载软件,有条件的推荐115更好的下载软件!

下载地址:


游客,如果您要查看本帖隐藏内容请回复





上一篇:海浪 / Bølgen (2015) 4K高清版本下载
下一篇:渔业阴谋(简繁中字)/ Seaspiracy (2021) 4K高清版本下载
回复

使用道具 举报

1

主题

1369

帖子

4135

积分

4K家园VIP

Rank: 9Rank: 9Rank: 9

积分
4135
发表于 2022-6-10 13:01:54 | 显示全部楼层
试试先,好用再说
回复 支持 反对

使用道具 举报

0

主题

3

帖子

14

积分

新手上路

Rank: 1

积分
14
发表于 2022-6-10 14:10:43 | 显示全部楼层
让我看看呗,谢谢分享
回复 支持 反对

使用道具 举报

49

主题

1489

帖子

4269

积分

4K家园VIP

Rank: 9Rank: 9Rank: 9

积分
4269
发表于 2022-6-10 15:46:03 | 显示全部楼层
佩服佩服!
回复 支持 反对

使用道具 举报

45

主题

1486

帖子

4306

积分

4K家园VIP

Rank: 9Rank: 9Rank: 9

积分
4306
发表于 2022-6-11 00:15:36 | 显示全部楼层
支持楼主,用户楼主,楼主英明呀!!!
回复 支持 反对

使用道具 举报

50

主题

1499

帖子

4269

积分

4K家园VIP

Rank: 9Rank: 9Rank: 9

积分
4269
发表于 2022-6-11 11:28:22 来自手机 | 显示全部楼层
专业抢沙发的!哈哈
回复 支持 反对

使用道具 举报

2

主题

1346

帖子

3890

积分

4K家园VIP

Rank: 9Rank: 9Rank: 9

积分
3890
发表于 2022-6-11 11:35:09 来自手机 | 显示全部楼层
呵呵,低调,低调!
回复 支持 反对

使用道具 举报

0

主题

468

帖子

2853

积分

注册会员

Rank: 2

积分
2853
发表于 2022-6-11 11:51:44 | 显示全部楼层
谢谢楼主分享
回复 支持 反对

使用道具 举报

0

主题

5

帖子

30

积分

新手上路

Rank: 1

积分
30
发表于 2022-6-11 12:03:52 来自手机 | 显示全部楼层
谢谢分享
回复

使用道具 举报

0

主题

13

帖子

102

积分

新手上路

Rank: 1

积分
102
发表于 2022-6-12 11:01:09 | 显示全部楼层
遇到新男人就会成为自己终身的最爱吗
回复 支持 反对

使用道具 举报

您需要登录后才可以回帖 登录 | 立即注册

本版积分规则

精彩图文
Archiver|手机版|TAG|Sitemap|新帖|专题|联系我们:邮箱: 4kjia.com@gmail.com   

4k家园   ©2019