爱芯 / Made For Love (2021) / 第一季全8集/4K高清版本下载

[复制链接]

203

主题

226

帖子

2233

积分

版主

Rank: 7Rank: 7Rank: 7

积分
2233
 楼主| 发表于 2022-6-12 18:22:20 | 显示全部楼层 |阅读模式

p2638917733_副本.jpg

◎译  名 爱芯/为爱打造
◎片  名 Made For Love
◎年  代 2021
◎产  地 美国
◎类  别 剧情/喜剧/科幻
◎语  言 英语
◎上映日期 2021-04-01(美国)
◎IMDb评分  6.9/10 from 9785 users
◎IMDb链接  https://www.imdb.com/title/tt7808566/
◎豆瓣评分 7.2/10 from 1240 users
◎豆瓣链接 https://douban.com/subject/27602184/
◎集  数 10
◎片  长 30分钟
◎导  演 帕特里克·萨默维尔 Patrick Somerville
◎编  剧 阿丽莎·纳汀 Alissa Nutting / S·J·克拉克森 S.J. Clarkson
◎主  演 克里斯汀·米利欧缇 Cristin Milioti
       奥古斯托·阿吉莱拉 Augusto Aguilera
       诺玛·杜梅温尼 Noma Dumezweni
       雷·罗马诺 Ray Romano
       凯莱布·富特 Caleb Foote
       雷蒙德·李 Raymond Lee
       比利·马格努森 Billy Magnussen
       丹·巴克达尔 Dan Bakkedahl
       汤姆·鲍尔 Tom Bower
       多泰斯·詹姆斯 Dontez James
       瑟莱斯特派蔻丝 Celeste Pechous
       阿里斯·阿瓦拉多 Aris Alvarado
       霍普·班克斯 Hope Banks
       Mike Caravella
       马修·卡德罗普 Matthew Cardarople
       布伦特·蔡斯 Brent Chase
       Alfonso Diluca
       阿什利·达兰妮 Ashley Dulaney
       尼亚切·海邓迪 Nyasha Hatendi
       杰登·伦德 Jayden Lund
       布兰顿·莫拉莱斯 Brandon Morales
       Hannah Rebecca Telle


◎简  介


  HBO Max的半小时剧《爱芯 Made for Love》改编自Alissa Nutting的同名小说,S.J. Clarkson及Patrick Somerville负责此项目。
  包含黑色﹑报仇﹑离婚等题材的《爱芯》讲述30多岁的女主Hazel Green(Cris tin Milioti饰)逃离了丈夫Byron Gogol,因为这个反社会人格的科技界亿万富翁是个渴求关怀﹑不稳定的人,而且他还想在女主脑中植入「Made for Love」晶片,使Byron可以永远追踪﹑观察Hazel,甚至知道女主的一切所想所感。所以Hazel只好不情愿地跑回去沙漠区家乡,与年迈的鳏夫父亲及他的拟真性爱娃娃Diane同住。

Video
ID : 1
Format : HEVC
Format/Info : High Efficiency Video Coding
Format profile : Main 10@L5@Main
HDR format : SMPTE ST 2094 App 4, Version 1, HDR10+ Profile B compatible
Codec ID : V_MPEGH/ISO/HEVC
Duration : 29 min 44 s
Bit rate : 14.1 Mb/s
Width : 3 840 pixels
Height : 1 600 pixels
Display aspect ratio : 2.40:1
Frame rate mode : Constant
Frame rate : 23.976 (24000/1001) FPS
Color space : YUV
Chroma subsampling : 4:2:0
Bit depth : 10 bits
Bits/(Pixel*Frame) : 0.096
Stream size : 2.94 GiB (94%)
Default : Yes
Forced : No
Color range : Limited
Color primaries : BT.2020
Transfer characteristics : PQ
Matrix coefficients : BT.2020 non-constant
Mastering display color primaries : Display P3
Mastering display luminance : min: 0.0001 cd/m2, max: 1000 cd/m2
Maximum Content Light Level : 683 cd/m2
Maximum Frame-Average Light Level : 71 cd/m2

Audio
ID : 2
Format : E-AC-3
Format/Info : Enhanced AC-3
Commercial name : Dolby Digital Plus
Codec ID : A_EAC3
Duration : 29 min 44 s
Bit rate mode : Constant
Bit rate : 640 kb/s
Channel(s) : 6 channels
Channel layout : L R C LFE Ls Rs
Sampling rate : 48.0 kHz
Frame rate : 31.250 FPS (1536 SPF)
Compression mode : Lossy
Stream size : 136 MiB (4%)
Language : English
Service kind : Complete Main
Default : Yes
Forced : No

Text #1
ID : 3
Format : UTF-8
Codec ID : S_TEXT/UTF8
Codec ID/Info : UTF-8 Plain Text
Title : English (SDH)
Language : English
Default : No
Forced : No

Text #2
ID : 4
Format : UTF-8
Codec ID : S_TEXT/UTF8
Codec ID/Info : UTF-8 Plain Text
Title : Français
Language : French
Default : No
Forced : No

Menu
00:00:00.000 : Studio Logo
00:00:05.000 : Scene 2
00:00:44.000 : Title Sequence
00:00:49.000 : Scene 4
00:08:44.000 : Scene 5
00:17:35.000 : Scene 6
00:28:28.000 : End Credits


下载地址:

游客,如果您要查看本帖隐藏内容请回复





上一篇:可爱的小农场 (2022) / 第一季全7集/4K高清版本下载
下一篇:第一夫人 / The First Lady (2022) / 第一季全10集/4K高清版本下载
回复

使用道具 举报

2

主题

1485

帖子

4259

积分

4K家园VIP

Rank: 9Rank: 9Rank: 9

积分
4259
发表于 2022-6-12 18:22:28 | 显示全部楼层
纯粹路过,没任何兴趣,仅仅是看在老用户份上回复一下
回复 支持 反对

使用道具 举报

55

主题

1471

帖子

4271

积分

4K家园VIP

Rank: 9Rank: 9Rank: 9

积分
4271
发表于 2022-6-12 18:22:28 来自手机 | 显示全部楼层
撸过
回复 支持 反对

使用道具 举报

1

主题

1736

帖子

4818

积分

4K家园VIP

Rank: 9Rank: 9Rank: 9

积分
4818
发表于 2022-6-13 03:48:53 | 显示全部楼层
站位支持
回复 支持 反对

使用道具 举报

2

主题

1171

帖子

3531

积分

4K家园VIP

Rank: 9Rank: 9Rank: 9

积分
3531
发表于 2022-6-13 10:19:20 来自手机 | 显示全部楼层
前排,哇咔咔
回复 支持 反对

使用道具 举报

4

主题

1446

帖子

4182

积分

4K家园VIP

Rank: 9Rank: 9Rank: 9

积分
4182
发表于 2022-6-14 06:30:05 来自手机 | 显示全部楼层
我也顶起出售广告位
回复 支持 反对

使用道具 举报

0

主题

18

帖子

38

积分

新手上路

Rank: 1

积分
38
发表于 6 天前 | 显示全部楼层

站位支持
回复

使用道具 举报

您需要登录后才可以回帖 登录 | 立即注册

本版积分规则

精彩图文
Archiver|手机版|TAG|Sitemap|新帖|专题|联系我们:邮箱: 4kjia.com@gmail.com   

4k家园   ©2019