第一夫人 / The First Lady (2022) / 第一季全10集/4K高清版本下载

[复制链接]

155

主题

176

帖子

1760

积分

版主

Rank: 7Rank: 7Rank: 7

积分
1760
 楼主| 发表于 2022-6-12 18:57:53 | 显示全部楼层 |阅读模式
p2869953771_副本.jpg

◎译  名 第一夫人
◎片  名 The First Lady
◎年  代 2022
◎产  地 美国
◎类  别 剧情/传记/历史
◎语  言 英语
◎上映日期 2022-04-17(美国)
◎IMDb评分  6.3/10 from 2459 users
◎IMDb链接  https://www.imdb.com/title/tt13223570/
◎豆瓣评分 7.0/10 from 236 users
◎豆瓣链接 https://douban.com/subject/35337705/
◎集  数 10
◎导  演 苏珊娜·比尔 Susanne Bier
◎主  演 吉莲·安德森 Gillian Anderson
        基弗·萨瑟兰 Kiefer Sutherland
        维奥拉·戴维斯 Viola Davis
        米歇尔·菲佛 Michelle Pfeiffer
        达科塔·范宁 Dakota Fanning
        艾伦·艾克哈特 Aaron Eckhart
        O·T·法格本 O.T. Fagbenle
        艾伦·伯斯汀 Ellen Burstyn
        卡莉·史派妮 Cailee Spaeny
        伊莱扎·斯坎伦 Eliza Scanlen
        瑞斯·维克菲尔德 Rhys Wakefield
        莉莉·拉贝 Lily Rabe
        唐娜·琳·钱普林 Donna Lynne Champlin
        萨尼雅·西德尼 Saniyya Sidney
        莱克西·安德伍德 Lexi Underwood
        德里克·塞西尔 Derek Cecil
        阿雅·卡什 Aya Cash
        赵家玲 Rosalind Chao
        凯登·博伊德 Cayden Boyd
        迈克尔·阿伦诺夫 Michael Aronov
        Thomas E. Sullivan Thomas E. Sullivan
        伯纳黛特·奎格利 Bernadette Quigley
        朱迪·格雷尔 Judy Greer
        查理·普拉默 Charlie Plummer
        雷吉娜·泰勒 Regina Taylor
        杰里米·博布 Jeremy Bobb
        艾比·格洛弗 Abby Glover
        艾希礼·勒孔特·坎贝尔 Ashley LeConte Campbell
        阿尔洛·默茨 Arlo Mertz
        克里·杜瓦尔 Clea DuVall
        杰基·厄尔·哈利 Jackie Earle Haley
        格洛利亚·鲁本 Gloria Reuben
        玛丽亚·迪齐亚 Maria Dizzia
        丹妮·海芙琳 Danni Heverin
        杰米·劳森 Jayme Lawson
        伊万·帕克 Evan Parke
        杰克·皮克金 Jake Picking
        贝丝·皮尔格林 Beth Pilgreen

◎简  介

  米歇尔·菲佛将主演Showtime新剧《第一夫人们》,扮演杰拉尔德·福特总统的妻子、第一夫人贝蒂·福特。福特在1974年至1977年担任美国第一夫人,她也是历史上和政治上较为活跃的总统夫人之一,热衷于对各种时事热闻发表评论。在她公开与酗酒和药物过量进行斗争之后,她也提高了公众对成瘾的认知。

  该剧由苏珊娜·比尔(《无所作为》)执导,作家亚伦·库利创作,并与获得奥斯卡奖的电影制片人凯茜·舒尔曼、戴维斯、朱利叶斯·特农、安德鲁·王、杰夫·加斯平和布拉德·卡普兰一同担任执行制片人,该剧的第一季将聚焦于三位第一夫人米歇尔·奥巴马、贝蒂·福特和安娜·埃莉诺·罗斯福的个人与政治生活,她们对美国领导层的重塑具有启示性的作用,此前维奥拉·戴维斯曾被宣布将扮演前第一夫人米歇尔·奥巴马。

Video
ID : 1
Format : HEVC
Format/Info : High Efficiency Video Coding
Format profile : Main 10@L5@Main
HDR format : SMPTE ST 2086, HDR10 compatible
Codec ID : V_MPEGH/ISO/HEVC
Duration : 58 min 43 s
Bit rate : 14.7 Mb/s
Width : 3 840 pixels
Height : 2 160 pixels
Display aspect ratio : 16:9
Frame rate mode : Constant
Frame rate : 23.976 (24000/1001) FPS
Color space : YUV
Chroma subsampling : 4:2:0
Bit depth : 10 bits
Bits/(Pixel*Frame) : 0.074
Stream size : 6.05 GiB (96%)
Writing library : x265 3.4hy:[Linux][GCC 7.5.0][64 bit] 10bit
Encoding settings : cpuid=1111039 / frame-threads=6 / no-wpp / no-pmode / no-pme / no-psnr / no-ssim / log-level=2 / input-csp=1 / input-res=3840x2160 / interlace=0 / total-frames=0 / level-idc=0 / high-tier=1 / uhd-bd=0 / ref=4 / no-allow-non-conformance / repeat-headers / annexb / aud / hrd / info / hash=0 / no-temporal-layers / no-open-gop / min-keyint=48 / keyint=48 / gop-lookahead=0 / bframes=4 / b-adapt=2 / b-pyramid / bframe-bias=0 / rc-lookahead=48 / lookahead-slices=4 / scenecut=0 / hist-scenecut=0 / radl=0 / no-splice / no-intra-refresh / ctu=64 / min-cu-size=8 / rect / no-amp / max-tu-size=32 / tu-inter-depth=1 / tu-intra-depth=1 / limit-tu=0 / rdoq-level=2 / dynamic-rd=0.00 / no-ssim-rd / signhide / no-tskip / nr-intra=100 / nr-inter=400 / no-constrained-intra / strong-intra-smoothing / max-merge=3 / limit-refs=3 / limit-modes / me=3 / subme=3 / merange=57 / temporal-mvp / no-frame-dup / no-hme / weightp / no-weightb / no-analyze-src-pics / deblock=0:0 / sao / no-sao-non-deblock / rd=4 / selective-sao=4 / no-early-skip / rskip / no-fast-intra / no-tskip-fast / no-cu-lossless / no-b-intra / no-splitrd-skip / rdpenalty=0 / psy-rd=0.00 / psy-rdoq=1.00 / no-rd-refine / no-lossless / cbqpoffs=0 / crqpoffs=3 / rc=abr / bitrate=15000 / qcomp=0.60 / qpstep=4 / stats-write=0 / stats-read=2 / cplxblur=20.0 / qblur=0.5 / vbv-maxrate=18000 / vbv-bufsize=12000 / vbv-init=0.6 / vbv-end=0.6 / vbv-end-fr-adj=0.0 / ipratio=1.40 / pbratio=1.30 / aq-mode=2 / aq-strength=1.00 / cutree / zone-count=0 / no-strict-cbr / qg-size=32 / no-rc-grain / qpmax=69 / qpmin=0 / no-const-vbv / sar=1 / overscan=0 / videoformat=5 / range=0 / colorprim=9 / transfer=16 / colormatrix=9 / chromaloc=0 / display-window=0 / master-display=G(13250,34500)B(7500,3000)R(34000,16000)WP(15635,16450)L(10000000,1) / cll=0,0 / min-luma=0 / max-luma=1023 / log2-max-poc-lsb=8 / vui-timing-info / vui-hrd-info / no-concatenation / slices=1 / no-opt-qp-pps / no-opt-ref-list-length-pps / no-multi-pass-opt-rps / scenecut-bias=0.05 / hist-threshold=0.01 / no-opt-cu-delta-qp / no-aq-motion / hdr10 / no-hdr10-opt / no-dhdr10-opt / no-idr-recovery-sei / analysis-reuse-level=0 / analysis-save-reuse-level=0 / analysis-load-reuse-level=0 / scale-factor=0 / refine-intra=0 / refine-inter=0 / refine-mv=1 / refine-ctu-distortion=0 / no-limit-sao / ctu-info=0 / no-lowpass-dct / refine-analysis-type=0 / copy-pic=1 / max-ausize-factor=1.0 / no-dynamic-refine / no-single-sei / no-hevc-aq / no-svt / no-field / qp-adaptation-range=1.00 / no-scenecut-aware-qpconformance-window-offsets / right=0 / bottom=0 / decoder-max-rate=0
Default : Yes
Forced : No
Color range : Limited
Color primaries : BT.2020
Transfer characteristics : PQ
Matrix coefficients : BT.2020 non-constant
Mastering display color primaries : Display P3
Mastering display luminance : min: 0.0001 cd/m2, max: 1000 cd/m2

Audio
ID : 2
Format : E-AC-3
Format/Info : Enhanced AC-3
Commercial name : Dolby Digital Plus
Codec ID : A_EAC3
Duration : 58 min 44 s
Bit rate mode : Constant
Bit rate : 640 kb/s
Channel(s) : 6 channels
Channel layout : L R C LFE Ls Rs
Sampling rate : 48.0 kHz
Frame rate : 31.250 FPS (1536 SPF)
Compression mode : Lossy
Delay relative to video : 18 ms
Stream size : 269 MiB (4%)
Language : English
Service kind : Complete Main
Default : Yes
Forced : No

Text #1
ID : 3
Format : UTF-8
Codec ID : S_TEXT/UTF8
Codec ID/Info : UTF-8 Plain Text
Duration : 57 min 12 s
Bit rate : 60 b/s
Count of elements : 815
Stream size : 25.2 KiB (0%)
Language : English
Default : No
Forced : No

Text #2
ID : 4
Format : UTF-8
Codec ID : S_TEXT/UTF8
Codec ID/Info : UTF-8 Plain Text
Duration : 57 min 47 s
Bit rate : 68 b/s
Count of elements : 930
Stream size : 29.1 KiB (0%)
Title : SDH
Language : English
Default : No
Forced : No

Menu
00:00:00.000 : en:Scene 1
00:01:44.970 : en:Scene 2
00:02:26.970 : en:Scene 3
00:04:26.970 : en:Scene 4
00:04:58.970 : en:Scene 5
00:10:30.970 : en:Scene 6
00:11:05.970 : en:Scene 7
00:12:48.970 : en:Scene 8
00:14:40.970 : en:Scene 9
00:16:27.970 : en:Scene 10
00:18:48.970 : en:Scene 11
00:19:09.970 : en:Scene 12
00:20:00.970 : en:Scene 13
00:21:27.970 : en:Scene 14
00:23:20.970 : en:Scene 15
00:23:58.970 : en:Scene 16
00:25:14.970 : en:Scene 17
00:26:20.970 : en:Scene 18
00:27:26.970 : en:Scene 19
00:28:04.970 : en:Scene 20
00:29:25.970 : en:Scene 21
00:29:57.970 : en:Scene 22
00:30:49.970 : en:Scene 23
00:31:24.970 : en:Scene 24
00:31:58.970 : en:Scene 25
00:33:49.970 : en:Scene 26
00:34:44.970 : en:Scene 27
00:35:20.970 : en:Scene 28
00:36:16.970 : en:Scene 29
00:38:48.970 : en:Scene 30
00:39:25.970 : en:Scene 31
00:40:19.970 : en:Scene 32
00:41:20.970 : en:Scene 33
00:41:59.970 : en:Scene 34
00:42:44.970 : en:Scene 35
00:43:32.970 : en:Scene 36
00:44:55.970 : en:Scene 37
00:46:14.970 : en:Scene 38
00:47:04.970 : en:Scene 39
00:49:57.970 : en:Scene 40
00:50:30.970 : en:Scene 41
00:51:02.970 : en:Scene 42
00:51:53.970 : en:Scene 43
00:52:27.970 : en:Scene 44
00:52:59.970 : en:Scene 45
00:53:54.970 : en:Scene 46
00:54:53.970 : en:Scene 47
00:55:51.970 : en:Scene 48
00:56:22.970 : en:Scene 49
00:57:08.970 : en:Scene 50
00:57:45.970 : en:Scene 51
00:58:29.970 : en:Scene 52

下载地址:

游客,如果您要查看本帖隐藏内容请回复

游客,如果您要查看本帖隐藏内容请回复

游客,如果您要查看本帖隐藏内容请回复

游客,如果您要查看本帖隐藏内容请回复




p2869953771_副本.jpg

上一篇:爱芯 / Made For Love (2021) / 第一季全8集/4K高清版本下载
下一篇:煤气灯 / Gaslit (2022) / 第一季全8集/4K高清版本下载
回复

使用道具 举报

40

主题

1502

帖子

4322

积分

4K家园VIP

Rank: 9Rank: 9Rank: 9

积分
4322
发表于 2022-6-12 18:58:02 | 显示全部楼层
楼主呀,,,您太有才了。。。
回复 支持 反对

使用道具 举报

53

主题

1533

帖子

4439

积分

4K家园VIP

Rank: 9Rank: 9Rank: 9

积分
4439
发表于 2022-6-12 18:58:02 | 显示全部楼层
试试看吧
回复 支持 反对

使用道具 举报

0

主题

1340

帖子

4048

积分

4K家园VIP

Rank: 9Rank: 9Rank: 9

积分
4048
发表于 2022-6-20 01:56:56 | 显示全部楼层
楼猪V5啊
回复 支持 反对

使用道具 举报

2

主题

1622

帖子

4466

积分

4K家园VIP

Rank: 9Rank: 9Rank: 9

积分
4466
发表于 2022-6-20 03:30:19 | 显示全部楼层
小白一个 顶一下
回复 支持 反对

使用道具 举报

1

主题

1395

帖子

4039

积分

4K家园VIP

Rank: 9Rank: 9Rank: 9

积分
4039
发表于 2022-6-20 22:08:36 | 显示全部楼层
多谢楼主分享
回复 支持 反对

使用道具 举报

您需要登录后才可以回帖 登录 | 立即注册

本版积分规则

精彩图文
Archiver|手机版|TAG|Sitemap|新帖|专题|联系我们:邮箱: 4kjia.com@gmail.com   

4k家园   ©2019