[4K电影] 父亲的身份 (简繁中字)/ Fatherhood (2021) 4K高清版本下载

[复制链接]

2299

主题

2448

帖子

1万

积分

超级版主

Rank: 8Rank: 8

积分
17752
 楼主| 发表于 2022-6-14 20:15:18 | 显示全部楼层 |阅读模式
QQ图片20220614200626_副本.png

◎译  名 父亲的身份/爸爸进行式(港)/为父进行式(台)/爸爸进行时/给麦迪的两个吻/为父进行时/Two Kisses for Maddy
◎片  名 Fatherhood
◎年  代 2021
◎产  地 美国
◎类  别 剧情
◎语  言 英语
◎上映日期 2021-06-18(美国网络)
◎IMDb评分  6.6/10 from 35941 users
◎IMDb链接  https://www.imdb.com/title/tt4733624/
◎豆瓣评分 6.5/10 from 1180 users
◎豆瓣链接 https://movie.douban.com/subject/26414810/
◎导  演 保罗·韦兹 Paul Weitz
◎编  剧 达娜·史蒂文斯 Dana Stevens / 保罗·韦兹 Paul Weitz
◎主  演 凯文·哈特 Kevin Hart
       朱利安·凯西 Julian Casey
       霍莉·G·弗兰克尔 Holly G. Frankel
       亚瑟·霍尔顿 Arthur Holden
       阿德里安·M·蒙波因特 Adrian M. Mompoint
       路易斯·奥利瓦 Luis Oliva
       保罗·雷瑟 Paul Reiser
       德汪达·怀斯 DeWanda Wise
       阿尔法·伍达德 Alfre Woodard
       里尔·莱尔·哈瓦瑞 Lil Rel Howery
       艾伦·大卫 Ellen David
       黛博拉·艾里德 Deborah Ayorinde
       安东尼·卡里根 Anthony Carrigan
       斯蒂芬妮·科斯塔 Stephanie Costa
       玛丽莲·迪恩-罗比齐 Mylène Dinh-Robic
       查宁·塔图姆 Channing Tatum
       贝莉·塞恩 Bailey Thain
       伊内斯·费格霍利·波松 Ines Feghouli Bozon

◎简  介

  这部暖心、有趣又感人的影片根据真人真事改编,凯文·哈特在剧中饰演的鳏夫在痛失爱妻后承担起一项艰巨任务:当个父亲。
Video
ID : 1
Format : HEVC
Format/Info : High Efficiency Video Coding
Format profile : Main 10@L5@High
HDR format : SMPTE ST 2086, HDR10 compatible
Codec ID : V_MPEGH/ISO/HEVC
Duration : 1 h 49 min
Bit rate : 24.5 Mb/s
Width : 3 840 pixels
Height : 1 600 pixels
Display aspect ratio : 2.40:1
Frame rate mode : Constant
Frame rate : 23.976 FPS
Color space : YUV
Chroma subsampling : 4:2:0 (Type 2)
Bit depth : 10 bits
Bits/(Pixel*Frame) : 0.166
Stream size : 18.6 GiB (89%)
Default : Yes
Forced : No
Color range : Limited
Color primaries : BT.2020
Transfer characteristics : PQ
Matrix coefficients : BT.2020 non-constant
Mastering display color primaries : BT.2020
Mastering display luminance : min: 0.0050 cd/m2, max: 1000 cd/m2
Maximum Content Light Level : 10000 cd/m2
Maximum Frame-Average Light Level : 147 cd/m2

Audio #1
ID : 2
Format : DTS XLL
Format/Info : Digital Theater Systems
Commercial name : DTS-HD Master Audio
Codec ID : A_DTS
Duration : 1 h 49 min
Bit rate mode : Variable
Bit rate : 2 108 kb/s
Channel(s) : 6 channels
Channel layout : C L R Ls Rs LFE
Sampling rate : 48.0 kHz
Frame rate : 93.750 FPS (512 SPF)
Bit depth : 16 bits
Compression mode : Lossless
Delay relative to video : 3 ms
Stream size : 1.61 GiB (8%)
Title : DTS-HD MA 5.1
Language : English
Default : Yes
Forced : No

Audio #2
ID : 3
Format : E-AC-3 JOC
Format/Info : Enhanced AC-3 with Joint Object Coding
Commercial name : Dolby Digital Plus with Dolby Atmos
Codec ID : A_EAC3
Duration : 1 h 49 min
Bit rate mode : Constant
Bit rate : 768 kb/s
Channel(s) : 6 channels
Channel layout : L R C LFE Ls Rs
Sampling rate : 48.0 kHz
Frame rate : 31.250 FPS (1536 SPF)
Compression mode : Lossy
Stream size : 599 MiB (3%)
Language : English
Service kind : Complete Main
Default : Yes
Forced : No
Complexity index : 16
Number of dynamic objects : 15
Bed channel count : 1 channel
Bed channel configuration : LFE

Text #1
ID : 4
Format : UTF-8
Codec ID : S_TEXT/UTF8
Codec ID/Info : UTF-8 Plain Text
Duration : 1 h 42 min
Bit rate : 77 b/s
Count of elements : 1820
Stream size : 58.2 KiB (0%)
Title : English British
Language : English
Default : Yes
Forced : No

Text #2
ID : 5
Format : UTF-8
Codec ID : S_TEXT/UTF8
Codec ID/Info : UTF-8 Plain Text
Duration : 1 h 45 min
Bit rate : 82 b/s
Count of elements : 2167
Stream size : 64.2 KiB (0%)
Title : English CC
Language : English
Default : No
Forced : No

Text #3
ID : 6
Format : UTF-8
Codec ID : S_TEXT/UTF8
Codec ID/Info : UTF-8 Plain Text
Duration : 1 h 48 min
Bit rate : 100 b/s
Count of elements : 1839
Stream size : 79.4 KiB (0%)
Title : Arabic
Language : Arabic
Default : No
Forced : No

Text #4
ID : 7
Format : UTF-8
Codec ID : S_TEXT/UTF8
Codec ID/Info : UTF-8 Plain Text
Duration : 1 h 48 min
Bit rate : 102 b/s
Count of elements : 1833
Stream size : 80.8 KiB (0%)
Title : Bulgarian
Language : Bulgarian
Default : No
Forced : No

Text #5
ID : 8
Format : UTF-8
Codec ID : S_TEXT/UTF8
Codec ID/Info : UTF-8 Plain Text
Duration : 1 h 48 min
Bit rate : 66 b/s
Count of elements : 1830
Stream size : 52.6 KiB (0%)
Title : 中文(简体)
Language : 中文
Default : No
Forced : No

Text #6
ID : 9
Format : UTF-8
Codec ID : S_TEXT/UTF8
Codec ID/Info : UTF-8 Plain Text
Duration : 1 h 47 min
Bit rate : 54 b/s
Count of elements : 1736
Stream size : 43.0 KiB (0%)
Title : 中文(繁体)
Language : 中文
Default : No
Forced : No


Text #7
ID : 10
Format : UTF-8
Codec ID : S_TEXT/UTF8
Codec ID/Info : UTF-8 Plain Text
Duration : 1 h 47 min
Bit rate : 67 b/s
Count of elements : 1719
Stream size : 53.1 KiB (0%)
Title : Czech
Language : Czech
Default : No
Forced : No

Text #8
ID : 11
Format : UTF-8
Codec ID : S_TEXT/UTF8
Codec ID/Info : UTF-8 Plain Text
Duration : 1 h 48 min
Bit rate : 66 b/s
Count of elements : 1627
Stream size : 52.9 KiB (0%)
Title : Danish
Language : Danish
Default : No
Forced : No

Text #9
ID : 12
Format : UTF-8
Codec ID : S_TEXT/UTF8
Codec ID/Info : UTF-8 Plain Text
Duration : 1 h 47 min
Bit rate : 72 b/s
Count of elements : 1754
Stream size : 56.7 KiB (0%)
Title : German
Language : German
Default : No
Forced : No

Text #10
ID : 13
Format : UTF-8
Codec ID : S_TEXT/UTF8
Codec ID/Info : UTF-8 Plain Text
Duration : 1 h 43 min
Bit rate : 119 b/s
Count of elements : 1686
Stream size : 90.3 KiB (0%)
Title : Greek
Language : Greek
Default : No
Forced : No

Text #11
ID : 14
Format : UTF-8
Codec ID : S_TEXT/UTF8
Codec ID/Info : UTF-8 Plain Text
Duration : 1 h 47 min
Bit rate : 59 b/s
Count of elements : 1691
Stream size : 46.7 KiB (0%)
Title : Spanish Latin American
Language : Spanish
Default : No
Forced : No

Text #12
ID : 15
Format : UTF-8
Codec ID : S_TEXT/UTF8
Codec ID/Info : UTF-8 Plain Text
Duration : 1 h 48 min
Bit rate : 66 b/s
Count of elements : 1829
Stream size : 52.8 KiB (0%)
Title : Spanish European
Language : Spanish
Default : No
Forced : No

Text #13
ID : 16
Format : UTF-8
Codec ID : S_TEXT/UTF8
Codec ID/Info : UTF-8 Plain Text
Duration : 1 h 48 min
Bit rate : 70 b/s
Count of elements : 1817
Stream size : 56.1 KiB (0%)
Title : Finnish
Language : Finnish
Default : No
Forced : No

Text #14
ID : 17
Format : UTF-8
Codec ID : S_TEXT/UTF8
Codec ID/Info : UTF-8 Plain Text
Duration : 1 h 48 min
Bit rate : 64 b/s
Count of elements : 1764
Stream size : 50.9 KiB (0%)
Title : French European
Language : French
Default : No
Forced : No

Text #15
ID : 18
Format : UTF-8
Codec ID : S_TEXT/UTF8
Codec ID/Info : UTF-8 Plain Text
Duration : 1 h 47 min
Bit rate : 97 b/s
Count of elements : 1710
Stream size : 77.1 KiB (0%)
Title : Hebrew
Language : Hebrew
Default : No
Forced : No

Text #16
ID : 19
Format : UTF-8
Codec ID : S_TEXT/UTF8
Codec ID/Info : UTF-8 Plain Text
Duration : 1 h 48 min
Bit rate : 66 b/s
Count of elements : 1832
Stream size : 52.4 KiB (0%)
Title : Hungarian
Language : Hungarian
Default : No
Forced : No

Text #17
ID : 20
Format : UTF-8
Codec ID : S_TEXT/UTF8
Codec ID/Info : UTF-8 Plain Text
Duration : 1 h 48 min
Bit rate : 63 b/s
Count of elements : 1830
Stream size : 50.3 KiB (0%)
Title : Italian
Language : Italian
Default : No
Forced : No

Text #18
ID : 21
Format : UTF-8
Codec ID : S_TEXT/UTF8
Codec ID/Info : UTF-8 Plain Text
Duration : 1 h 47 min
Bit rate : 57 b/s
Count of elements : 1264
Stream size : 45.3 KiB (0%)
Title : Dutch
Language : Dutch
Default : No
Forced : No

Text #19
ID : 22
Format : UTF-8
Codec ID : S_TEXT/UTF8
Codec ID/Info : UTF-8 Plain Text
Duration : 1 h 48 min
Bit rate : 63 b/s
Count of elements : 1664
Stream size : 50.3 KiB (0%)
Title : Norwegian
Language : Norwegian
Default : No
Forced : No

Text #20
ID : 23
Format : UTF-8
Codec ID : S_TEXT/UTF8
Codec ID/Info : UTF-8 Plain Text
Duration : 1 h 47 min
Bit rate : 70 b/s
Count of elements : 1723
Stream size : 55.2 KiB (0%)
Title : Polish
Language : Polish
Default : No
Forced : No

Text #21
ID : 24
Format : UTF-8
Codec ID : S_TEXT/UTF8
Codec ID/Info : UTF-8 Plain Text
Duration : 1 h 48 min
Bit rate : 64 b/s
Count of elements : 1833
Stream size : 51.3 KiB (0%)
Title : Portuguese Brazilian
Language : Portuguese
Default : No
Forced : No

Text #22
ID : 25
Format : UTF-8
Codec ID : S_TEXT/UTF8
Codec ID/Info : UTF-8 Plain Text
Duration : 1 h 47 min
Bit rate : 72 b/s
Count of elements : 1702
Stream size : 57.0 KiB (0%)
Title : Portuguese European
Language : Portuguese
Default : No
Forced : No

Text #23
ID : 26
Format : UTF-8
Codec ID : S_TEXT/UTF8
Codec ID/Info : UTF-8 Plain Text
Duration : 1 h 48 min
Bit rate : 61 b/s
Count of elements : 1830
Stream size : 48.4 KiB (0%)
Title : Slovak
Language : Slovak
Default : No
Forced : No

Text #24
ID : 27
Format : UTF-8
Codec ID : S_TEXT/UTF8
Codec ID/Info : UTF-8 Plain Text
Duration : 1 h 47 min
Bit rate : 68 b/s
Count of elements : 1799
Stream size : 53.9 KiB (0%)
Title : Swedish
Language : Swedish
Default : No
Forced : No

Text #25
ID : 28
Format : UTF-8
Codec ID : S_TEXT/UTF8
Codec ID/Info : UTF-8 Plain Text
Duration : 1 h 47 min
Bit rate : 166 b/s
Count of elements : 1831
Stream size : 131 KiB (0%)
Title : Thai
Language : Thai
Default : No
Forced : No

Text #26
ID : 29
Format : UTF-8
Codec ID : S_TEXT/UTF8
Codec ID/Info : UTF-8 Plain Text
Duration : 1 h 47 min
Bit rate : 72 b/s
Count of elements : 1714
Stream size : 56.9 KiB (0%)
Title : Turkish
Language : Turkish
Default : No
Forced : No

Text #27
ID : 30
Format : UTF-8
Codec ID : S_TEXT/UTF8
Codec ID/Info : UTF-8 Plain Text
Duration : 1 h 48 min
Bit rate : 90 b/s
Count of elements : 1830
Stream size : 71.5 KiB (0%)
Title : Vietnamese
Language : Vietnamese
Default : No
Forced : No

Text #28
ID : 31
Format : PGS
Muxing mode : zlib
Codec ID : S_HDMV/PGS
Codec ID/Info : Picture based subtitle format used on BDs/HD-DVDs
Duration : 1 h 42 min
Bit rate : 47.6 kb/s
Count of elements : 3640
Stream size : 34.9 MiB (0%)
Title : English
Language : English
Default : No
Forced : No

Text #29
ID : 32
Format : PGS
Muxing mode : zlib
Codec ID : S_HDMV/PGS
Codec ID/Info : Picture based subtitle format used on BDs/HD-DVDs
Duration : 1 h 44 min
Bit rate : 51.7 kb/s
Count of elements : 3998
Stream size : 38.6 MiB (0%)
Title : English (SDH)
Language : English
Default : No
Forced : No

Text #30
ID : 33
Format : PGS
Muxing mode : zlib
Codec ID : S_HDMV/PGS
Codec ID/Info : Picture based subtitle format used on BDs/HD-DVDs
Duration : 1 h 48 min
Bit rate : 38.2 kb/s
Count of elements : 3660
Stream size : 29.6 MiB (0%)
Title : 中文(简体)
Language : 中文
Default : No
Forced : No

Text #31
ID : 34
Format : PGS
Muxing mode : zlib
Codec ID : S_HDMV/PGS
Codec ID/Info : Picture based subtitle format used on BDs/HD-DVDs
Duration : 1 h 47 min
Bit rate : 33.1 kb/s
Count of elements : 3472
Stream size : 25.4 MiB (0%)
Title : 中文(繁体)
Language : 中文
Default : No
Forced : No


Text #32
ID : 35
Format : PGS
Muxing mode : zlib
Codec ID : S_HDMV/PGS
Codec ID/Info : Picture based subtitle format used on BDs/HD-DVDs
Duration : 1 h 48 min
Bit rate : 37.7 kb/s
Count of elements : 3528
Stream size : 29.1 MiB (0%)
Title : French
Language : French
Default : No
Forced : No

Text #33
ID : 36
Format : PGS
Muxing mode : zlib
Codec ID : S_HDMV/PGS
Codec ID/Info : Picture based subtitle format used on BDs/HD-DVDs
Duration : 1 h 47 min
Bit rate : 44.3 kb/s
Count of elements : 3652
Stream size : 34.1 MiB (0%)
Title : Indonesian
Language : Indonesian
Default : No
Forced : No

Text #34
ID : 37
Format : PGS
Muxing mode : zlib
Codec ID : S_HDMV/PGS
Codec ID/Info : Picture based subtitle format used on BDs/HD-DVDs
Duration : 1 h 47 min
Bit rate : 34.4 kb/s
Count of elements : 3820
Stream size : 26.5 MiB (0%)
Title : Korean
Language : Korean
Default : No
Forced : No

Text #35
ID : 38
Format : PGS
Muxing mode : zlib
Codec ID : S_HDMV/PGS
Codec ID/Info : Picture based subtitle format used on BDs/HD-DVDs
Duration : 1 h 48 min
Bit rate : 39.8 kb/s
Count of elements : 3666
Stream size : 30.8 MiB (0%)
Title : Portuguese (Brazilian)
Language : Portuguese
Default : No
Forced : No

Text #36
ID : 39
Format : PGS
Muxing mode : zlib
Codec ID : S_HDMV/PGS
Codec ID/Info : Picture based subtitle format used on BDs/HD-DVDs
Duration : 1 h 47 min
Bit rate : 35.6 kb/s
Count of elements : 3382
Stream size : 27.4 MiB (0%)
Title : Spanish (Latin American)
Language : Spanish
Default : No
Forced : No

Text #37
ID : 40
Format : PGS
Muxing mode : zlib
Codec ID : S_HDMV/PGS
Codec ID/Info : Picture based subtitle format used on BDs/HD-DVDs
Duration : 1 h 47 min
Bit rate : 43.5 kb/s
Count of elements : 3662
Stream size : 33.5 MiB (0%)
Title : Thai
Language : Thai
Default : No
Forced : No

Menu
00:00:00.000 : en:Chapter 01
00:07:06.551 : en:Chapter 02
00:13:48.787 : en:Chapter 03
00:21:20.822 : en:Chapter 04
00:28:18.865 : en:Chapter 05
00:35:26.042 : en:Chapter 06
00:42:42.270 : en:Chapter 07
00:49:48.196 : en:Chapter 08
00:56:14.457 : en:Chapter 09
01:03:42.989 : en:Chapter 10
01:10:39.197 : en:Chapter 11
01:17:12.340 : en:Chapter 12
01:22:08.803 : en:Chapter 13
01:29:22.904 : en:Chapter 14
01:36:44.054 : en:Chapter 15
01:40:05.088 : en:Chapter 16

资源速度为零或资源敏感被和谐时,推荐使用qBittorrent等下载软件,有条件的推荐115更好的下载软件!

下载地址:

游客,如果您要查看本帖隐藏内容请回复
游客,如果您要查看本帖隐藏内容请回复

游客,如果您要查看本帖隐藏内容请回复

游客,如果您要查看本帖隐藏内容请回复






上一篇:达拉斯买家俱乐部 / Dallas Buyers Club‎ (2013) 4K高清版本下载
下一篇:低潮 / Low Tide (2018) 4K高清版本下载
回复

使用道具 举报

6

主题

1233

帖子

3725

积分

4K家园VIP

Rank: 9Rank: 9Rank: 9

积分
3725
发表于 2022-6-14 20:15:21 来自手机 | 显示全部楼层
我也是坐沙发的
回复 支持 反对

使用道具 举报

3

主题

1420

帖子

4086

积分

4K家园VIP

Rank: 9Rank: 9Rank: 9

积分
4086
发表于 2022-6-14 23:09:53 | 显示全部楼层
有4K版卡,下个看下
回复 支持 反对

使用道具 举报

1

主题

1326

帖子

3806

积分

4K家园VIP

Rank: 9Rank: 9Rank: 9

积分
3806
发表于 2022-6-14 23:26:20 | 显示全部楼层
哈哈,我只看看不说话
回复 支持 反对

使用道具 举报

55

主题

1541

帖子

4455

积分

4K家园VIP

Rank: 9Rank: 9Rank: 9

积分
4455
发表于 2022-6-15 00:50:44 | 显示全部楼层
额.....这个可以有
回复 支持 反对

使用道具 举报

40

主题

1538

帖子

4412

积分

4K家园VIP

Rank: 9Rank: 9Rank: 9

积分
4412
发表于 2022-6-15 01:18:46 | 显示全部楼层
路过
回复 支持 反对

使用道具 举报

您需要登录后才可以回帖 登录 | 立即注册

本版积分规则

精彩图文
Archiver|手机版|TAG|Sitemap|新帖|专题|联系我们:邮箱: 4kjia.com@gmail.com   

4k家园   ©2019