[4K电影] 低潮 / Low Tide (2018) 4K高清版本下载

[复制链接]

1868

主题

2007

帖子

1万

积分

超级版主

Rank: 8Rank: 8

积分
15027
 楼主| 发表于 2022-6-14 20:42:44 | 显示全部楼层 |阅读模式

QQ图片20220614202923_副本.png

◎译  名 低潮
◎片  名 Low Tide
◎年  代 2018
◎产  地 美国
◎类  别 剧情
◎语  言 英语
◎上映日期 2019-04-28(翠贝卡电影节) / 2019-10-04(美国)
◎IMDb评分  6.3/10 from 2556 users
◎IMDb链接  https://www.imdb.com/title/tt7434324/
◎豆瓣评分 6.6/10 from 116 users
◎豆瓣链接 https://movie.douban.com/subject/27166160/
◎片  长 86分钟
◎导  演 凯文·麦克马林 Kevin McMullin
◎编  剧 凯文·麦克马林 Kevin McMullin
◎演  员 杰登·马泰尔 Jaeden Martell
       基恩·约翰逊 Keean Johnson
       谢伊·惠格姆 Shea Whigham
       亚历克斯·诺伊施泰特 Alex Neustaedter
       丹尼尔·祖尔格哈德利 Daniel Zolghadri
       克里斯汀·弗劳赛斯 Kristine Froseth
       迈克·霍奇 Mike Hodge
       泰迪·库卢卡 Teddy Coluca
       约翰·蒙丁 John Mondin
       詹姆斯·帕克斯顿 James Paxton
       卡米拉·佩雷斯 Camila Perez
       卡门·萨尔塔 Carmen Salta
       可汗·布莱恩特 Khail Bryant


◎简  介

  艾伦、瑞德和斯米蒂在泽西海岸度过盛夏,漫步在木板路上时陷入困境。但他们发现了宝藏,这使得朋友们的怀疑和暴力升级。

Video
ID : 1
Format : HEVC
Format/Info : High Efficiency Video Coding
Format profile : Main 10@L5@Main
HDR format : Dolby Vision, Version 1.0, dvhe.05.06, BL+RPU
Codec ID : dvhe
Codec ID/Info : High Efficiency Video Coding with Dolby Vision
Duration : 1 h 25 min
Bit rate : 14.4 Mb/s
Width : 3 840 pixels
Height : 2 160 pixels
Display aspect ratio : 16:9
Frame rate mode : Constant
Frame rate : 23.976 (24000/1001) FPS
Color space : YUV
Chroma subsampling : 4:2:0
Bit depth : 10 bits
Bits/(Pixel*Frame) : 0.073
Stream size : 8.67 GiB (97%)
Writing library : x265 3.4hy:[Linux][GCC 7.5.0][64 bit] 10bit
Encoding settings : cpuid=1111039 / frame-threads=6 / no-wpp / no-pmode / no-pme / no-psnr / no-ssim / log-level=2 / input-csp=1 / input-res=3840x2160 / interlace=0 / total-frames=0 / level-idc=0 / high-tier=1 / uhd-bd=0 / ref=4 / no-allow-non-conformance / repeat-headers / annexb / aud / hrd / info / hash=0 / no-temporal-layers / no-open-gop / min-keyint=48 / keyint=48 / gop-lookahead=0 / bframes=4 / b-adapt=2 / b-pyramid / bframe-bias=0 / rc-lookahead=48 / lookahead-slices=4 / scenecut=0 / hist-scenecut=0 / radl=0 / no-splice / no-intra-refresh / ctu=64 / min-cu-size=8 / rect / no-amp / max-tu-size=32 / tu-inter-depth=1 / tu-intra-depth=1 / limit-tu=0 / rdoq-level=2 / dynamic-rd=0.00 / no-ssim-rd / signhide / no-tskip / nr-intra=100 / nr-inter=400 / no-constrained-intra / strong-intra-smoothing / max-merge=3 / limit-refs=3 / limit-modes / me=3 / subme=3 / merange=57 / temporal-mvp / no-frame-dup / no-hme / weightp / no-weightb / no-analyze-src-pics / deblock=0:0 / sao / no-sao-non-deblock / rd=4 / selective-sao=4 / no-early-skip / rskip / no-fast-intra / no-tskip-fast / no-cu-lossless / no-b-intra / no-splitrd-skip / rdpenalty=0 / psy-rd=0.00 / psy-rdoq=1.00 / no-rd-refine / no-lossless / cbqpoffs=0 / crqpoffs=3 / rc=abr / bitrate=15000 / qcomp=0.60 / qpstep=4 / stats-write=0 / stats-read=2 / cplxblur=20.0 / qblur=0.5 / vbv-maxrate=18000 / vbv-bufsize=12000 / vbv-init=0.6 / vbv-end=0.6 / vbv-end-fr-adj=0.0 / ipratio=1.40 / pbratio=1.30 / aq-mode=2 / aq-strength=1.00 / cutree / zone-count=0 / no-strict-cbr / qg-size=32 / no-rc-grain / qpmax=69 / qpmin=0 / no-const-vbv / sar=1 / overscan=0 / videoformat=5 / range=1 / colorprim=2 / transfer=2 / colormatrix=2 / chromaloc=0 / display-window=0 / cll=0,0 / min-luma=0 / max-luma=1023 / log2-max-poc-lsb=8 / vui-timing-info / vui-hrd-info / no-concatenation / slices=1 / no-opt-qp-pps / no-opt-ref-list-length-pps / no-multi-pass-opt-rps / scenecut-bias=0.05 / hist-threshold=0.01 / no-opt-cu-delta-qp / no-aq-motion / no-hdr10 / no-hdr10-opt / no-dhdr10-opt / no-idr-recovery-sei / analysis-reuse-level=0 / analysis-save-reuse-level=0 / analysis-load-reuse-level=0 / scale-factor=0 / refine-intra=0 / refine-inter=0 / refine-mv=1 / refine-ctu-distortion=0 / no-limit-sao / ctu-info=0 / no-lowpass-dct / refine-analysis-type=0 / copy-pic=1 / max-ausize-factor=1.0 / no-dynamic-refine / no-single-sei / no-hevc-aq / no-svt / no-field / qp-adaptation-range=1.00 / no-scenecut-aware-qpconformance-window-offsets / right=0 / bottom=0 / decoder-max-rate=0
Default : Yes
Alternate group : 1
Encoded date : UTC 2022-06-14 09:31:58
Tagged date : UTC 2022-06-14 09:33:48
Color range : Full
Codec configuration box : hvcC+dvcC

Audio
ID : 2
Format : AC-3
Format/Info : Audio Coding 3
Commercial name : Dolby Digital
Codec ID : ac-3
Duration : 1 h 25 min
Bit rate mode : Constant
Bit rate : 384 kb/s
Maximum bit rate : 406 kb/s
Channel(s) : 6 channels
Channel layout : L R C LFE Ls Rs
Sampling rate : 48.0 kHz
Frame rate : 31.250 FPS (1536 SPF)
Compression mode : Lossy
Stream size : 236 MiB (3%)
Title : English
Language : English
Service kind : Complete Main
Default : Yes
Alternate group : 1
Tagged date : UTC 2022-06-14 09:33:48

Text
ID : 3
Format : Timed Text
Codec ID : tx3g
Duration : 1 h 21 min
Bit rate mode : Variable
Bit rate : 65 b/s
Stream size : 39.1 KiB (0%)
Title : English
Language : English
Forced : No
Encoded date : UTC 2022-06-14 09:33:48
Tagged date : UTC 2022-06-14 09:33:48


资源速度为零或资源敏感被和谐时,推荐使用qBittorrent等下载软件,有条件的推荐115更好的下载软件!

下载地址:


游客,如果您要查看本帖隐藏内容请回复

游客,如果您要查看本帖隐藏内容请回复

游客,如果您要查看本帖隐藏内容请回复







上一篇:父亲的身份 (简繁中字)/ Fatherhood (2021) 4K高清版本下载
下一篇:米纳里 / Minari (2020) 4K高清版本下载
回复

使用道具 举报

3

主题

1293

帖子

3897

积分

4K家园VIP

Rank: 9Rank: 9Rank: 9

积分
3897
发表于 2022-6-14 20:42:48 | 显示全部楼层
支持支持再支持
回复 支持 反对

使用道具 举报

1

主题

1309

帖子

3953

积分

4K家园VIP

Rank: 9Rank: 9Rank: 9

积分
3953
发表于 2022-6-15 08:45:09 | 显示全部楼层
高手云集 果断围观
回复 支持 反对

使用道具 举报

0

主题

82

帖子

402

积分

新手上路

Rank: 1

积分
402
发表于 2022-6-15 15:31:05 | 显示全部楼层
支持支持再支持
回复 支持 反对

使用道具 举报

2

主题

1738

帖子

4848

积分

4K家园VIP

Rank: 9Rank: 9Rank: 9

积分
4848
发表于 2022-6-20 02:17:42 | 显示全部楼层
向楼主学习
回复 支持 反对

使用道具 举报

1

主题

1418

帖子

4070

积分

4K家园VIP

Rank: 9Rank: 9Rank: 9

积分
4070
发表于 2022-6-20 18:53:53 | 显示全部楼层
好像还可以
回复 支持 反对

使用道具 举报

58

主题

1562

帖子

4496

积分

4K家园VIP

Rank: 9Rank: 9Rank: 9

积分
4496
发表于 7 天前 | 显示全部楼层
我了个去,顶了
回复 支持 反对

使用道具 举报

您需要登录后才可以回帖 登录 | 立即注册

本版积分规则

精彩图文
Archiver|手机版|TAG|Sitemap|新帖|专题|联系我们:邮箱: 4kjia.com@gmail.com   

4k家园   ©2019