德黑兰(简繁粤中字)Tehran第二季/全8集(2022)/4K高清版本下载

[复制链接]

203

主题

226

帖子

2233

积分

版主

Rank: 7Rank: 7Rank: 7

积分
2233
 楼主| 发表于 2022-6-16 21:53:55 | 显示全部楼层 |阅读模式
p2871882463_副本.png

◎译  名 德黑兰
◎片  名 Tehran
◎年  代 2022
◎产  地 以色列/美国
◎类  别 剧情/动作/惊悚/犯罪
◎语  言 波斯语/希伯来语/英语
◎上映日期 2022-05-06(美国)
◎IMDb评分  7.5/10 from 15432 users
◎IMDb链接  https://www.imdb.com/title/tt13924066/
◎豆瓣评分 8.1/10 from 276 users
◎豆瓣链接 https://movie.douban.com/subject/35343873/
◎集  数 8
◎主  演 妮芙·苏丹 Niv Sultan
          格伦·克洛斯 Glenn Close
          毕扬·丹斯曼 Bijan Daneshmand


◎简  介


  Apple TV+续订《德黑兰》第二季。
  从第二季开始,本剧会成为Apple TV+在全世界范围的原创剧集,在以色列当地会同时上线Apple TV+和在Kan 11播出。

Video
ID : 1
Format : HEVC
Format/Info : High Efficiency Video Coding
Format profile : Main 10@L5@High
HDR format : Dolby Vision, Version 1.0, dvhe.05.06, BL+RPU
Codec ID : V_MPEGH/ISO/HEVC
Duration : 51 min 9 s
Bit rate : 24.4 Mb/s
Width : 3 840 pixels
Height : 1 606 pixels
Display aspect ratio : 2.40:1
Frame rate mode : Constant
Frame rate : 23.976 (24000/1001) FPS
Color space : YUV
Chroma subsampling : 4:2:0
Bit depth : 10 bits
Bits/(Pixel*Frame) : 0.165
Stream size : 8.73 GiB (97%)
Default : No
Forced : No

Audio
ID : 2
Format : E-AC-3 JOC
Format/Info : Enhanced AC-3 with Joint Object Coding
Commercial name : Dolby Digital Plus with Dolby Atmos
Codec ID : A_EAC3
Duration : 51 min 9 s
Bit rate mode : Constant
Bit rate : 768 kb/s
Channel(s) : 6 channels
Channel layout : L R C LFE Ls Rs
Sampling rate : 48.0 kHz
Frame rate : 31.250 FPS (1536 SPF)
Compression mode : Lossy
Stream size : 281 MiB (3%)
Language : Hebrew
Service kind : Complete Main
Default : No
Forced : No
Complexity index : 16
Number of dynamic objects : 15
Bed channel count : 1 channel
Bed channel configuration : LFE

Text #1
ID : 3
Format : UTF-8
Codec ID : S_TEXT/UTF8
Codec ID/Info : UTF-8 Plain Text
Duration : 49 min 27 s
Bit rate : 60 b/s
Count of elements : 539
Stream size : 22.0 KiB (0%)
Title : Forced
Language : Hebrew
Default : No
Forced : Yes

Text #2
ID : 4
Format : UTF-8
Codec ID : S_TEXT/UTF8
Codec ID/Info : UTF-8 Plain Text
Duration : 50 min 28 s
Bit rate : 60 b/s
Count of elements : 547
Stream size : 22.4 KiB (0%)
Language : Hebrew
Default : No
Forced : No

Text #3
ID : 5
Format : UTF-8
Codec ID : S_TEXT/UTF8
Codec ID/Info : UTF-8 Plain Text
Duration : 48 min 55 s
Bit rate : 49 b/s
Count of elements : 539
Stream size : 17.9 KiB (0%)
Language : English
Default : No
Forced : No

Text #4
ID : 6
Format : UTF-8
Codec ID : S_TEXT/UTF8
Codec ID/Info : UTF-8 Plain Text
Duration : 50 min 28 s
Bit rate : 74 b/s
Count of elements : 683
Stream size : 27.4 KiB (0%)
Title : SDH
Language : Hebrew
Default : No
Forced : No

Text #5
ID : 7
Format : UTF-8
Codec ID : S_TEXT/UTF8
Codec ID/Info : UTF-8 Plain Text
Duration : 50 min 3 s
Bit rate : 55 b/s
Count of elements : 653
Stream size : 20.4 KiB (0%)
Title : SDH
Language : English
Default : No
Forced : No

Text #6
ID : 8
Format : UTF-8
Codec ID : S_TEXT/UTF8
Codec ID/Info : UTF-8 Plain Text
Duration : 50 min 28 s
Bit rate : 66 b/s
Count of elements : 542
Stream size : 24.8 KiB (0%)
Language : Arabic
Default : No
Forced : No

Text #7
ID : 9
Format : UTF-8
Codec ID : S_TEXT/UTF8
Codec ID/Info : UTF-8 Plain Text
Duration : 50 min 28 s
Bit rate : 69 b/s
Count of elements : 517
Stream size : 25.6 KiB (0%)
Language : Bulgarian
Default : No
Forced : No

Text #8
ID : 10
Format : UTF-8
Codec ID : S_TEXT/UTF8
Codec ID/Info : UTF-8 Plain Text
Duration : 50 min 28 s
Bit rate : 43 b/s
Count of elements : 545
Stream size : 16.1 KiB (0%)
Title : 中文(简体)
Language : 中文
Default : No
Forced : No

Text #9
ID : 11
Format : UTF-8
Codec ID : S_TEXT/UTF8
Codec ID/Info : UTF-8 Plain Text
Duration : 50 min 28 s
Bit rate : 42 b/s
Count of elements : 547
Stream size : 15.6 KiB (0%)
Title : 中文(繁体)
Language : 中文
Default : No
Forced : No


Text #10
ID : 12
Format : UTF-8
Codec ID : S_TEXT/UTF8
Codec ID/Info : UTF-8 Plain Text
Duration : 50 min 28 s
Bit rate : 42 b/s
Count of elements : 509
Stream size : 15.9 KiB (0%)
Language : Czech
Default : No
Forced : No

Text #11
ID : 13
Format : UTF-8
Codec ID : S_TEXT/UTF8
Codec ID/Info : UTF-8 Plain Text
Duration : 50 min 28 s
Bit rate : 41 b/s
Count of elements : 435
Stream size : 15.5 KiB (0%)
Language : Danish
Default : No
Forced : No

Text #12
ID : 14
Format : UTF-8
Codec ID : S_TEXT/UTF8
Codec ID/Info : UTF-8 Plain Text
Duration : 50 min 26 s
Bit rate : 44 b/s
Count of elements : 568
Stream size : 16.5 KiB (0%)
Language : German
Default : No
Forced : No

Text #13
ID : 15
Format : UTF-8
Codec ID : S_TEXT/UTF8
Codec ID/Info : UTF-8 Plain Text
Duration : 50 min 28 s
Bit rate : 80 b/s
Count of elements : 528
Stream size : 29.6 KiB (0%)
Language : Greek
Default : No
Forced : No

Text #14
ID : 16
Format : UTF-8
Codec ID : S_TEXT/UTF8
Codec ID/Info : UTF-8 Plain Text
Duration : 50 min 28 s
Bit rate : 48 b/s
Count of elements : 549
Stream size : 17.9 KiB (0%)
Title : Latin American
Language : Spanish
Default : No
Forced : No

Text #15
ID : 17
Format : UTF-8
Codec ID : S_TEXT/UTF8
Codec ID/Info : UTF-8 Plain Text
Duration : 50 min 28 s
Bit rate : 48 b/s
Count of elements : 536
Stream size : 17.9 KiB (0%)
Title : European
Language : Spanish
Default : No
Forced : No

Text #16
ID : 18
Format : UTF-8
Codec ID : S_TEXT/UTF8
Codec ID/Info : UTF-8 Plain Text
Duration : 50 min 28 s
Bit rate : 44 b/s
Count of elements : 524
Stream size : 16.5 KiB (0%)
Language : Estonian
Default : No
Forced : No

Text #17
ID : 19
Format : UTF-8
Codec ID : S_TEXT/UTF8
Codec ID/Info : UTF-8 Plain Text
Duration : 50 min 28 s
Bit rate : 45 b/s
Count of elements : 544
Stream size : 16.8 KiB (0%)
Language : Finnish
Default : No
Forced : No

Text #18
ID : 20
Format : UTF-8
Codec ID : S_TEXT/UTF8
Codec ID/Info : UTF-8 Plain Text
Duration : 49 min 44 s
Bit rate : 45 b/s
Count of elements : 582
Stream size : 16.5 KiB (0%)
Title : Canadian
Language : French
Default : No
Forced : No

Text #19
ID : 21
Format : UTF-8
Codec ID : S_TEXT/UTF8
Codec ID/Info : UTF-8 Plain Text
Duration : 49 min 44 s
Bit rate : 45 b/s
Count of elements : 582
Stream size : 16.5 KiB (0%)
Language : French
Default : No
Forced : No

Text #20
ID : 22
Format : UTF-8
Codec ID : S_TEXT/UTF8
Codec ID/Info : UTF-8 Plain Text
Duration : 50 min 28 s
Bit rate : 124 b/s
Count of elements : 547
Stream size : 46.1 KiB (0%)
Language : Hindi
Default : No
Forced : No

Text #21
ID : 23
Format : UTF-8
Codec ID : S_TEXT/UTF8
Codec ID/Info : UTF-8 Plain Text
Duration : 50 min 28 s
Bit rate : 46 b/s
Count of elements : 544
Stream size : 17.1 KiB (0%)
Language : Hungarian
Default : No
Forced : No

Text #22
ID : 24
Format : UTF-8
Codec ID : S_TEXT/UTF8
Codec ID/Info : UTF-8 Plain Text
Duration : 50 min 28 s
Bit rate : 48 b/s
Count of elements : 544
Stream size : 18.1 KiB (0%)
Language : Indonesian
Default : No
Forced : No

Text #23
ID : 25
Format : UTF-8
Codec ID : S_TEXT/UTF8
Codec ID/Info : UTF-8 Plain Text
Duration : 50 min 27 s
Bit rate : 48 b/s
Count of elements : 547
Stream size : 17.8 KiB (0%)
Language : Italian
Default : No
Forced : No

Text #24
ID : 26
Format : UTF-8
Codec ID : S_TEXT/UTF8
Codec ID/Info : UTF-8 Plain Text
Duration : 50 min 30 s
Bit rate : 43 b/s
Count of elements : 564
Stream size : 16.3 KiB (0%)
Language : Japanese
Default : No
Forced : No

Text #25
ID : 27
Format : UTF-8
Codec ID : S_TEXT/UTF8
Codec ID/Info : UTF-8 Plain Text
Duration : 50 min 28 s
Bit rate : 45 b/s
Count of elements : 547
Stream size : 16.8 KiB (0%)
Language : Korean
Default : No
Forced : No

Text #26
ID : 28
Format : UTF-8
Codec ID : S_TEXT/UTF8
Codec ID/Info : UTF-8 Plain Text
Duration : 50 min 28 s
Bit rate : 45 b/s
Count of elements : 544
Stream size : 16.7 KiB (0%)
Language : Lithuanian
Default : No
Forced : No

Text #27
ID : 29
Format : UTF-8
Codec ID : S_TEXT/UTF8
Codec ID/Info : UTF-8 Plain Text
Duration : 50 min 28 s
Bit rate : 48 b/s
Count of elements : 539
Stream size : 17.9 KiB (0%)
Language : Latvian
Default : No
Forced : No

Text #28
ID : 30
Format : UTF-8
Codec ID : S_TEXT/UTF8
Codec ID/Info : UTF-8 Plain Text
Duration : 50 min 28 s
Bit rate : 49 b/s
Count of elements : 544
Stream size : 18.4 KiB (0%)
Language : Malay
Default : No
Forced : No

Text #29
ID : 31
Format : UTF-8
Codec ID : S_TEXT/UTF8
Codec ID/Info : UTF-8 Plain Text
Duration : 50 min 28 s
Bit rate : 44 b/s
Count of elements : 473
Stream size : 16.3 KiB (0%)
Language : Dutch
Default : No
Forced : No

Text #30
ID : 32
Format : UTF-8
Codec ID : S_TEXT/UTF8
Codec ID/Info : UTF-8 Plain Text
Duration : 50 min 28 s
Bit rate : 44 b/s
Count of elements : 497
Stream size : 16.6 KiB (0%)
Language : Norwegian
Default : No
Forced : No

Text #31
ID : 33
Format : UTF-8
Codec ID : S_TEXT/UTF8
Codec ID/Info : UTF-8 Plain Text
Duration : 50 min 28 s
Bit rate : 45 b/s
Count of elements : 545
Stream size : 16.8 KiB (0%)
Language : Polish
Default : No
Forced : No

Text #32
ID : 34
Format : UTF-8
Codec ID : S_TEXT/UTF8
Codec ID/Info : UTF-8 Plain Text
Duration : 50 min 28 s
Bit rate : 45 b/s
Count of elements : 531
Stream size : 16.7 KiB (0%)
Title : Brazilian
Language : Portuguese
Default : No
Forced : No

Text #33
ID : 35
Format : UTF-8
Codec ID : S_TEXT/UTF8
Codec ID/Info : UTF-8 Plain Text
Duration : 50 min 28 s
Bit rate : 47 b/s
Count of elements : 543
Stream size : 17.5 KiB (0%)
Language : Portuguese
Default : No
Forced : No

Text #34
ID : 36
Format : UTF-8
Codec ID : S_TEXT/UTF8
Codec ID/Info : UTF-8 Plain Text
Duration : 50 min 28 s
Bit rate : 81 b/s
Count of elements : 547
Stream size : 30.1 KiB (0%)
Language : Russian
Default : No
Forced : No

Text #35
ID : 37
Format : UTF-8
Codec ID : S_TEXT/UTF8
Codec ID/Info : UTF-8 Plain Text
Duration : 50 min 28 s
Bit rate : 44 b/s
Count of elements : 541
Stream size : 16.4 KiB (0%)
Language : Slovak
Default : No
Forced : No

Text #36
ID : 38
Format : UTF-8
Codec ID : S_TEXT/UTF8
Codec ID/Info : UTF-8 Plain Text
Duration : 50 min 28 s
Bit rate : 39 b/s
Count of elements : 526
Stream size : 14.6 KiB (0%)
Language : Slovenian
Default : No
Forced : No

Text #37
ID : 39
Format : UTF-8
Codec ID : S_TEXT/UTF8
Codec ID/Info : UTF-8 Plain Text
Duration : 50 min 28 s
Bit rate : 46 b/s
Count of elements : 544
Stream size : 17.2 KiB (0%)
Language : Swedish
Default : No
Forced : No

Text #38
ID : 40
Format : UTF-8
Codec ID : S_TEXT/UTF8
Codec ID/Info : UTF-8 Plain Text
Duration : 50 min 28 s
Bit rate : 151 b/s
Count of elements : 545
Stream size : 56.2 KiB (0%)
Language : Tamil
Default : No
Forced : No

Text #39
ID : 41
Format : UTF-8
Codec ID : S_TEXT/UTF8
Codec ID/Info : UTF-8 Plain Text
Duration : 50 min 28 s
Bit rate : 132 b/s
Count of elements : 545
Stream size : 49.2 KiB (0%)
Language : Telugu
Default : No
Forced : No

Text #40
ID : 42
Format : UTF-8
Codec ID : S_TEXT/UTF8
Codec ID/Info : UTF-8 Plain Text
Duration : 50 min 28 s
Bit rate : 112 b/s
Count of elements : 545
Stream size : 41.7 KiB (0%)
Language : Thai
Default : No
Forced : No

Text #41
ID : 43
Format : UTF-8
Codec ID : S_TEXT/UTF8
Codec ID/Info : UTF-8 Plain Text
Duration : 50 min 28 s
Bit rate : 46 b/s
Count of elements : 545
Stream size : 17.1 KiB (0%)
Language : Turkish
Default : No
Forced : No

Text #42
ID : 44
Format : UTF-8
Codec ID : S_TEXT/UTF8
Codec ID/Info : UTF-8 Plain Text
Duration : 50 min 28 s
Bit rate : 71 b/s
Count of elements : 547
Stream size : 26.6 KiB (0%)
Language : Ukrainian
Default : No
Forced : No

Text #43
ID : 45
Format : UTF-8
Codec ID : S_TEXT/UTF8
Codec ID/Info : UTF-8 Plain Text
Duration : 50 min 28 s
Bit rate : 62 b/s
Count of elements : 544
Stream size : 23.1 KiB (0%)
Language : Vietnamese
Default : No
Forced : No

Text #44
ID : 46
Format : UTF-8
Codec ID : S_TEXT/UTF8
Codec ID/Info : UTF-8 Plain Text
Duration : 50 min 28 s
Bit rate : 40 b/s
Count of elements : 547
Stream size : 14.9 KiB (0%)
Title : 中文(粤语)
Language : 中文
Default : No
Forced : No


下载地址:

游客,如果您要查看本帖隐藏内容请回复

游客,如果您要查看本帖隐藏内容请回复

游客,如果您要查看本帖隐藏内容请回复

游客,如果您要查看本帖隐藏内容请回复





上一篇:煤气灯 / Gaslit (2022) / 第一季全8集/4K高清版本下载
下一篇:参与其中 / The Offer(2022) 第一季/全10集/4K高清版本下载
回复

使用道具 举报

0

主题

1358

帖子

4084

积分

4K家园VIP

Rank: 9Rank: 9Rank: 9

积分
4084
发表于 2022-6-16 21:54:26 来自手机 | 显示全部楼层
一直在看
回复 支持 反对

使用道具 举报

4

主题

14

帖子

355

积分

4K家园VIP

Rank: 9Rank: 9Rank: 9

积分
355
发表于 2022-6-17 07:59:23 | 显示全部楼层
有第一季吗
回复 支持 反对

使用道具 举报

2

主题

1468

帖子

4240

积分

4K家园VIP

Rank: 9Rank: 9Rank: 9

积分
4240
发表于 2022-6-17 23:01:48 | 显示全部楼层
哈哈,我只看看不说话
回复 支持 反对

使用道具 举报

46

主题

1457

帖子

4199

积分

4K家园VIP

Rank: 9Rank: 9Rank: 9

积分
4199
发表于 2022-6-18 11:08:56 | 显示全部楼层
楼下的接上
回复 支持 反对

使用道具 举报

3

主题

1398

帖子

4218

积分

4K家园VIP

Rank: 9Rank: 9Rank: 9

积分
4218
发表于 2022-6-21 13:14:07 | 显示全部楼层
我是个凑数的。。。
回复 支持 反对

使用道具 举报

1

主题

1688

帖子

4720

积分

4K家园VIP

Rank: 9Rank: 9Rank: 9

积分
4720
发表于 2022-6-21 23:42:58 | 显示全部楼层
差评
回复 支持 反对

使用道具 举报

0

主题

4

帖子

17

积分

新手上路

Rank: 1

积分
17
发表于 2022-6-22 21:36:27 来自手机 | 显示全部楼层
德黑兰不错的美剧
回复 支持 反对

使用道具 举报

您需要登录后才可以回帖 登录 | 立即注册

本版积分规则

精彩图文
Archiver|手机版|TAG|Sitemap|新帖|专题|联系我们:邮箱: 4kjia.com@gmail.com   

4k家园   ©2019