撕裂记忆体/The Lazarus Project第一季/全8集(2022)/4K高清版本下载

[复制链接]

155

主题

176

帖子

1760

积分

版主

Rank: 7Rank: 7Rank: 7

积分
1760
 楼主| 发表于 2022-6-18 09:34:40 | 显示全部楼层 |阅读模式
dbea2f0c56f6baba6e758d207edbbdcc_副本.jpg

◎译  名 撕裂记忆体/拉撒路计划/天堂计划/Extinction
◎片  名 The Lazarus Project
◎年  代 2022
◎产  地 英国
◎类  别 惊悚/奇幻
◎语  言 英语
◎上映日期 2022-06-16(英国)
◎IMDb评分  6.3/10 from 99 users
◎IMDb链接  https://www.imdb.com/title/tt14190592/
◎豆瓣评分 0/10 from 0 users
◎豆瓣链接 https://douban.com/subject/35766087/
◎编  剧 乔·巴顿 Joe Barton
◎主  演 Salóme Gunnarsdóttir Salóme Gunnarsdóttir
       布莱恩·格里森 Brian Gleeson
       塔兹·斯盖拉 Taz Skylar
       伊兰妮·谭 Elaine Tan
       托米·梅 Tomi May
       卢卡斯·洛克伦 Lukas Loughran
       奥利维娅·尼察 Olivia Nita
       托马斯·弗林 Thomas Flynn
       乔基姆·斯卡利 Joakim Skarli
       安佳丽·莫辛德拉 Anjli Mohindra
       汤姆·伯克 Tom Burke
       雯叶特·罗宾逊 Vinette Robinson
       卡罗琳·昆汀 Caroline Quentin
       帕帕·厄希度 Paapa Essiedu
       鲁迪·达马林加姆 Rudi Dharmalingam
       罗恩·麦克唐纳 Lorn Macdonald
       莎莉·克莱芙 Charly Clive

◎简  介

        当乔治一天醒来,发现自己重温了几个月前的一天时,他认为自己疯了。他最近的所有里程碑都被取消了,包括他在工作上的成功以及他与一生挚爱的婚姻。最糟糕的是,他似乎是唯一一个注意到发生了什么事的人。也就是说,直到他遇到了 Archie,他为 Lazarus Project 招募了 George——这是一个秘密组织,每当世界面临灭绝的威胁时,它就利用了让时间倒流的能力。像乔治一样,在拉撒路工作的人是地球上为数不多的能够记住时间倒流时未完成的事件的人。
Video
ID : 1
Format : HEVC
Format/Info : High Efficiency Video Coding
Format profile : Main@L5@High
Codec ID : V_MPEGH/ISO/HEVC
Duration : 45 min 10 s
Bit rate : 12.6 Mb/s
Width : 3 840 pixels
Height : 2 160 pixels
Display aspect ratio : 16:9
Frame rate mode : Constant
Frame rate : 25.000 FPS
Color space : YUV
Chroma subsampling : 4:2:0
Bit depth : 8 bits
Bits/(Pixel*Frame) : 0.061
Stream size : 3.98 GiB (97%)
Default : Yes
Forced : No
Color range : Limited
Color primaries : BT.709
Transfer characteristics : BT.709
Matrix coefficients : BT.709

Audio
ID : 2
Format : E-AC-3
Format/Info : Enhanced AC-3
Commercial name : Dolby Digital Plus
Codec ID : A_EAC3
Duration : 45 min 10 s
Bit rate mode : Constant
Bit rate : 384 kb/s
Channel(s) : 6 channels
Channel layout : L R C LFE Ls Rs
Sampling rate : 48.0 kHz
Frame rate : 31.250 FPS (1536 SPF)
Compression mode : Lossy
Stream size : 124 MiB (3%)
Language : English
Service kind : Complete Main
Default : Yes
Forced : No

Text #1
ID : 3
Format : UTF-8
Codec ID : S_TEXT/UTF8
Codec ID/Info : UTF-8 Plain Text
Duration : 43 min 45 s
Bit rate : 40 b/s
Count of elements : 440
Stream size : 13.1 KiB (0%)
Language : English
Default : No
Forced : No

Text #2
ID : 4
Format : UTF-8
Codec ID : S_TEXT/UTF8
Codec ID/Info : UTF-8 Plain Text
Duration : 44 min 26 s
Bit rate : 47 b/s
Count of elements : 540
Stream size : 15.5 KiB (0%)
Title : SDH
Language : English
Default : No
Forced : No




下载地址:


游客,如果您要查看本帖隐藏内容请回复





上一篇:参与其中 / The Offer(2022) 第一季/全10集/4K高清版本下载
下一篇:卡戴珊家族 / The Kardashians (2022) 第一季/全10集/4K高清版本下载
回复

使用道具 举报

48

主题

1549

帖子

4471

积分

4K家园VIP

Rank: 9Rank: 9Rank: 9

积分
4471
发表于 2022-6-18 09:35:12 | 显示全部楼层
高手啊
回复 支持 反对

使用道具 举报

1

主题

1606

帖子

4460

积分

4K家园VIP

Rank: 9Rank: 9Rank: 9

积分
4460
发表于 2022-6-18 09:35:12 | 显示全部楼层
呵呵,低调,低调!
回复 支持 反对

使用道具 举报

0

主题

1

帖子

6

积分

新手上路

Rank: 1

积分
6
发表于 2022-6-18 13:23:02 | 显示全部楼层
厉害啊,看看
回复 支持 反对

使用道具 举报

0

主题

254

帖子

1610

积分

4K家园VIP

Rank: 9Rank: 9Rank: 9

积分
1610
QQ
发表于 2022-6-19 10:36:58 | 显示全部楼层
楼主辛苦了,谢谢楼主,感谢楼主分享,楼主好人一生平安!!!
回复 支持 反对

使用道具 举报

1

主题

1630

帖子

4464

积分

4K家园VIP

Rank: 9Rank: 9Rank: 9

积分
4464
发表于 5 天前 | 显示全部楼层
垃圾
回复 支持 反对

使用道具 举报

您需要登录后才可以回帖 登录 | 立即注册

本版积分规则

精彩图文
Archiver|手机版|TAG|Sitemap|新帖|专题|联系我们:邮箱: 4kjia.com@gmail.com   

4k家园   ©2019