[4K电影] 纳什维尔 / Nashville (1975) 4K高清版本下载

[复制链接]

2299

主题

2448

帖子

1万

积分

超级版主

Rank: 8Rank: 8

积分
17752
 楼主| 发表于 2022-6-20 10:14:57 | 显示全部楼层 |阅读模式
QQ图片20220620100630_副本.png

◎译  名 纳什维尔/普世欢腾乐满城/纳斯维尔
◎片  名 Nashville
◎年  代 1975
◎产  地 美国
◎类  别 剧情/喜剧/音乐
◎语  言 英语
◎上映日期 1975-06-11(纽约首映)
◎IMDb评分  7.7/10 from 26153 users
◎IMDb链接  https://www.imdb.com/title/tt0073440/
◎豆瓣评分 8.2/10 from 3291 users
◎豆瓣链接 https://movie.douban.com/subject/1293037/
◎导  演 罗伯特·奥特曼 Robert Altman
◎编  剧 琼·图克斯伯里 Joan Tewkesbury
◎主  演 大卫·阿金 David Arkin
       芭芭拉·巴斯里 Barbara Baxley
       尼德·巴蒂 Ned Beatty
       凯伦·布莱克 Karen Black
       罗尼·布莱克利 Ronee Blakley
       蒂莫西·布朗 Timothy Brown
       基思·卡拉丹 Keith Carradine
       杰拉丁·卓别林 Geraldine Chaplin
       罗伯特·多奎 Robert DoQui
       谢莉·杜瓦尔 Shelley Duvall
       艾伦·加菲尔德 Allen Garfield
       亨利·吉布森 Henry Gibson
       斯科特·格伦 Scott Glenn
       杰夫·高布伦 Jeff Goldblum
       芭芭拉·哈里斯 Barbara Harris
       迈克尔·墨菲 Michael Murphy
       艾伦·F·尼科尔斯 Allan F. Nicholls
       戴夫·皮尔 Dave Peel
       克里斯蒂娜·雷恩斯 Cristina Raines
       伯特·莱姆森 Bert Remsen
       莉莉·汤姆林 Lily Tomlin
       格温·韦尔斯 Gwen Welles
       基南·怀恩 Keenan Wynn
       梅尔·基尔戈尔 Merle Kilgore
       理查德·巴斯金 Richard Baskin
       Vassar Clements Vassar Clements
       埃利奥特·古尔德 Elliott Gould
       朱莉·克里斯蒂 Julie Christie
       卡罗·马提尼 carlo Martini
       史蒂夫·厄尔 Steve Earle
       Maysie Hoy Maysie Hoy
       托马斯·哈尔·菲利普斯 Thomas Hal Phillips
       杰拉德·萨尔汀 Gailard Sartain
       霍华德·K·史密斯 Howard K. Smith
       琼·图克斯伯里 Joan Tewkesbury
       大卫·海沃德 David Hayward

◎简  介

  美国独立二百周年之际,精心筹备竞选活动的总统候选人,穿插其中的社会名流,借机扬名的乡村歌手,疯狂追捧的歌迷,冷眼旁观的BBC记者……各色人物你方唱罢我登场。在盛大的晚会上,女明星被刺杀使整部电影达到了最高潮。“你可以说,我不自由,但我并不为此而担忧”——在片尾冷漠的歌声中,镜头迅速地掠过场下喧嚣的人群,在那些呆滞或扭曲的面孔背后,是已被大众文化腐蚀而失去独立意识的空洞灵魂。

  擅长处理群戏的罗伯特?奥尔特曼以其出色的调度与控制力,在“喋喋不休”的对白与“混乱无序”的场景中,精确地描绘了越战阴影下美国芸芸众生的人情性态,并深刻揭示出普世欢腾气氛下的美国社会精神危机。本片获得奥斯卡最佳电影与最佳导演等提名,堪称美国70年代电影代表佳作。

Video
ID : 1
Format : HEVC
Format/Info : High Efficiency Video Coding
Format profile : Main 10@L5@Main
HDR format : SMPTE ST 2094 App 4, Version 1, HDR10+ Profile B compatible
Codec ID : V_MPEGH/ISO/HEVC
Duration : 2 h 40 min
Bit rate : 15.0 Mb/s
Width : 3 840 pixels
Height : 1 632 pixels
Display aspect ratio : 2.35:1
Frame rate mode : Constant
Frame rate : 23.976 (24000/1001) FPS
Color space : YUV
Chroma subsampling : 4:2:0
Bit depth : 10 bits
Bits/(Pixel*Frame) : 0.100
Stream size : 16.8 GiB (77%)
Language : English
Default : Yes
Forced : No
Color range : Limited
Color primaries : BT.2020
Transfer characteristics : PQ
Matrix coefficients : BT.2020 non-constant
Mastering display color primaries : Display P3
Mastering display luminance : min: 0.0001 cd/m2, max: 1000 cd/m2
Maximum Content Light Level : 1000 cd/m2
Maximum Frame-Average Light Level : 210 cd/m2

Audio #1
ID : 2
Format : DTS XLL
Format/Info : Digital Theater Systems
Commercial name : DTS-HD Master Audio
Codec ID : A_DTS
Duration : 2 h 40 min
Bit rate mode : Variable
Bit rate : 3 751 kb/s
Channel(s) : 6 channels
Channel layout : C L R Ls Rs LFE
Sampling rate : 48.0 kHz
Frame rate : 93.750 FPS (512 SPF)
Bit depth : 24 bits
Compression mode : Lossless
Delay relative to video : 8 ms
Stream size : 4.20 GiB (19%)
Title : DTS-HD Master Audio / 5.1 / 48 kHz / 3749 kbps / 24-bit
Language : English
Default : Yes
Forced : No

Audio #2
ID : 3
Format : E-AC-3
Format/Info : Enhanced AC-3
Commercial name : Dolby Digital Plus
Codec ID : A_EAC3
Duration : 2 h 40 min
Bit rate mode : Constant
Bit rate : 640 kb/s
Channel(s) : 6 channels
Channel layout : L R C LFE Ls Rs
Sampling rate : 48.0 kHz
Frame rate : 31.250 FPS (1536 SPF)
Compression mode : Lossy
Stream size : 734 MiB (3%)
Language : English
Service kind : Complete Main
Default : No
Forced : No

Text #1
ID : 4
Format : UTF-8
Codec ID : S_TEXT/UTF8
Codec ID/Info : UTF-8 Plain Text
Duration : 2 h 39 min
Bit rate : 111 b/s
Count of elements : 2925
Stream size : 130 KiB (0%)
Title : SDH
Language : English
Default : Yes
Forced : No

Text #2
ID : 5
Format : PGS
Muxing mode : zlib
Codec ID : S_HDMV/PGS
Codec ID/Info : Picture based subtitle format used on BDs/HD-DVDs
Duration : 2 h 39 min
Bit rate : 82.6 kb/s
Count of elements : 5894
Stream size : 94.4 MiB (0%)
Language : English
Default : No
Forced : No

Menu
00:00:00.000 : en:"The Long-Awaited Nashville"
00:01:42.311 : en:"200 Years"
00:10:11.736 : en:"Welcome to Nashville"
00:19:50.356 : en:Traffic Jam
00:27:46.081 : en:Visiting Hours
00:32:16.768 : en:Nashville Nightlife
00:38:05.283 : en:An Unexpected Phone Call
00:42:58.117 : en:After Hours
00:50:10.841 : en:Hamilton's Party
00:58:29.089 : en:The Grand Ole Opry
01:06:20.393 : en:"Keep a' Goin'"
01:08:23.808 : en:Miss Connie White
01:12:35.935 : en:"Are You Through?"
01:15:59.138 : en:A Visit From Julie Christie
01:19:37.481 : en:"Rolling Stone"
01:24:28.105 : en:Sunday Services
01:28:12.871 : en:"I'm Wandering in a Graveyard..."
01:30:52.197 : en:Hotel Rooms
01:41:42.179 : en:Opry Belle
01:54:17.893 : en:The Exit/In
01:58:06.329 : en:"Since You've Gone"
02:01:11.473 : en: "I Never Get Enough"
02:03:24.522 : en:"I'm Easy"
02:06:48.643 : en:"You're Supposed to Strip"
02:11:37.306 : en:Tom's Room
02:15:32.583 : en:"You Can't Sing"
02:18:16.955 : en:Hal Phillip Walker for President
02:24:28.702 : en:"One, I Love You"
02:26:58.393 : en:"My Idaho Home"
02:31:09.560 : en:"It Don't Worry Me"
02:35:48.923 : en:Closing Credits


资源速度为零或资源敏感被和谐时,推荐使用qBittorrent等下载软件,有条件的推荐115更好的下载软件!

下载地址:


游客,如果您要查看本帖隐藏内容请回复





上一篇:来玩 / Come Play (2020) 4K高清版本下载
下一篇:红粉佳人 / Pretty in Pink (1986) 4K高清版本下载
回复

使用道具 举报

2

主题

1205

帖子

3633

积分

4K家园VIP

Rank: 9Rank: 9Rank: 9

积分
3633
发表于 2022-6-20 10:15:01 | 显示全部楼层
高手啊
回复 支持 反对

使用道具 举报

2

主题

1433

帖子

4119

积分

4K家园VIP

Rank: 9Rank: 9Rank: 9

积分
4119
发表于 2022-6-20 11:34:42 | 显示全部楼层
珍爱生命,果断回帖。
回复 支持 反对

使用道具 举报

3

主题

1407

帖子

4063

积分

4K家园VIP

Rank: 9Rank: 9Rank: 9

积分
4063
发表于 2022-6-20 21:32:48 | 显示全部楼层
秀起来~
回复 支持 反对

使用道具 举报

1

主题

1398

帖子

4004

积分

4K家园VIP

Rank: 9Rank: 9Rank: 9

积分
4004
发表于 2022-6-22 17:55:44 | 显示全部楼层
珍爱生命,果断回帖。
回复 支持 反对

使用道具 举报

0

主题

1348

帖子

4066

积分

4K家园VIP

Rank: 9Rank: 9Rank: 9

积分
4066
发表于 2022-6-22 23:57:57 | 显示全部楼层
试试看吧
回复 支持 反对

使用道具 举报

您需要登录后才可以回帖 登录 | 立即注册

本版积分规则

精彩图文
Archiver|手机版|TAG|Sitemap|新帖|专题|联系我们:邮箱: 4kjia.com@gmail.com   

4k家园   ©2019