[4K电影] 往日情怀 (繁体中字)/ The Way We Were (1973) 4K高清版本下载

[复制链接]

1868

主题

2007

帖子

1万

积分

超级版主

Rank: 8Rank: 8

积分
15027
 楼主| 发表于 2022-6-20 11:15:31 | 显示全部楼层 |阅读模式
QQ图片20220620105838_副本.png

◎译  名 往日情怀 / 俏郎君
◎片  名 The Way We Were
◎年  代 1973
◎产  地 美国
◎类  别 剧情 / 爱情
◎语  言 英语
◎上映日期 1973-10-17
◎IMDb评分  7.0/10 from 24973 users
◎IMDb链接  https://www.imdb.com/title/tt0070903/
◎豆瓣评分 8.2/10 from 5688 users
◎豆瓣链接 https://movie.douban.com/subject/1292466/
◎片  长 118 分钟
◎导  演 西德尼·波拉克 Sydney Pollack
◎编  剧 亚瑟·劳伦特斯 Arthur Laurents / 弗朗西斯·福特·科波拉 Francis Ford Coppola / 大卫·雷菲尔德 David Rayfiel
◎演  员 芭芭拉·史翠珊 Barbra Streisand
       罗伯特·雷德福 Robert Redford
       洛伊丝·奇利斯 Lois Chiles
       詹姆斯·伍兹 James Woods
       苏珊·布莱克利 Susan Blakely
       约翰·F·伯内特 John F. Burnett
       多罗西·吉金斯 Dorothy Jeakins
       加里·利迪亚德 Gary Liddiard
       迈克尔·布里顿 Michael Britton



◎简  介


  本片以美国50年代美苏冷战时期为背景,围绕女主人公凯蒂·莫若斯凯(芭芭拉·史翠珊 Barbra Streisand饰)与男主人公哈贝尔·加德纳(罗伯特·雷德福 Robert Redford饰)讲述了一段由相识到相知相恋,却因彼此间个性和政治立场的差异而分手的爱情故事。凯蒂,性格倔强浓烈的左翼女生,在校担任青年政党联盟主席;而主张明哲保身的哈贝尔则是学校有名的运动和写作才子。两人顺理成章地走到一起,也不可避免地分道扬镳。许多年以后,哈贝尔在街头与凯蒂重逢,往日情怀,不禁涌上心头。
由著名导演西德尼·波拉克执导的影片《往日情怀》,根据阿琴·劳伦茨的小说改编而成。导演波拉克十分擅长反映当今社会的政治问题和揭露一些社会现实,而这部具有浓厚政治意味的好莱坞爱情片,更成为当时具有知识分子味道的代表作。波拉克一生导演了19部影片,共获得46项奥斯卡提名。本片则荣获...
Video
ID : 1
Format : HEVC
Format/Info : High Efficiency Video Coding
Format profile : Main@L5@Main
Codec ID : V_MPEGH/ISO/HEVC
Duration : 1 h 58 min
Bit rate : 15.0 Mb/s
Width : 3 840 pixels
Height : 1 600 pixels
Display aspect ratio : 2.40:1
Frame rate mode : Constant
Frame rate : 23.976 (24000/1001) FPS
Standard : NTSC
Color space : YUV
Chroma subsampling : 4:2:0
Bit depth : 8 bits
Bits/(Pixel*Frame) : 0.102
Stream size : 12.4 GiB (76%)
Writing library : x265 0.0:[Linux][GCC 4.8.2][64 bit] 8bit+10bit+12bit
Encoding settings : cpuid=1050111 / frame-threads=2 / wpp / no-pmode / no-pme / psnr / ssim / log-level=2 / csvfn=/apollo/env/YoshiEncodingWorkflowActivitiesLinuxEncoding/var/tmp/247729645/d6a96ebb-f03b-46b0-adb6-eacef1d850c8/2dd730bb-98b4-40c6-b3c6-6197e28cfc38_video_2160p_15000kbps.csv / csv-log-level=2 / input-csp=1 / input-res=3840x1600 / interlace=0 / total-frames=0 / level-idc=50 / high-tier=1 / uhd-bd=0 / ref=5 / no-allow-non-conformance / no-repeat-headers / annexb / no-aud / no-hrd / info / hash=0 / no-temporal-layers / no-open-gop / min-keyint=61 / keyint=120 / bframes=8 / b-adapt=2 / b-pyramid / bframe-bias=0 / rc-lookahead=120 / lookahead-slices=4 / scenecut=0 / no-intra-refresh / ctu=64 / min-cu-size=8 / rect / amp / max-tu-size=32 / tu-inter-depth=4 / tu-intra-depth=4 / limit-tu=4 / rdoq-level=2 / dynamic-rd=0.00 / no-ssim-rd / signhide / tskip / nr-intra=100 / nr-inter=600 / no-constrained-intra / strong-intra-smoothing / max-merge=3 / limit-refs=3 / limit-modes / me=3 / subme=3 / merange=57 / temporal-mvp / weightp / weightb / no-analyze-src-pics / deblock=0:0 / no-sao / no-sao-non-deblock / rd=4 / no-early-skip / no-rskip / no-fast-intra / tskip-fast / no-cu-lossless / b-intra / rdpenalty=0 / psy-rd=4.00 / psy-rdoq=10.00 / no-rd-refine / analysis-reuse-mode=0 / no-lossless / cbqpoffs=0 / crqpoffs=0 / rc=crf / crf=25.0 / qcomp=0.60 / qpstep=1 / stats-write=0 / stats-read=0 / vbv-maxrate=15000 / vbv-bufsize=20000 / vbv-init=0.9 / crf-max=0.0 / crf-min=0.0 / ipratio=1.10 / pbratio=1.00 / aq-mode=0 / aq-strength=1.50 / no-cutree / zone-count=0 / no-strict-cbr / qg-size=32 / rc-grain / qpmax=69 / qpmin=0 / const-vbv / sar=1 / overscan=0 / videoformat=2 / range=0 / colorprim=1 / transfer=1 / colormatrix=1 / chromaloc=0 / display-window=0 / max-cll=0,0 / min-luma=0 / max-luma=255 / log2-max-poc-lsb=8 / vui-timing-info / vui-hrd-info / slices=1 / opt-qp-pps / opt-ref-list-length-pps / no-multi-pass-opt-rps / scenecut-bias=0.05 / no-opt-cu-delta-qp / no-aq-motion / no-hdr / no-hdr-opt / no-dhdr10-opt / analysis-reuse-level=5 / scale-factor=0 / refine-intra=0 / refine-inter=0 / refine-mv=0 / no-limit-sao / ctu-info=0
Language : English
Default : Yes
Forced : No
Color range : Limited
Color primaries : BT.709
Transfer characteristics : BT.709
Matrix coefficients : BT.709

Audio #1
ID : 2
Format : DTS XLL
Format/Info : Digital Theater Systems
Commercial name : DTS-HD Master Audio
Codec ID : A_DTS
Duration : 1 h 58 min
Bit rate mode : Variable
Bit rate : 3 714 kb/s
Channel(s) : 6 channels
Channel layout : C L R Ls Rs LFE
Sampling rate : 48.0 kHz
Frame rate : 93.750 FPS (512 SPF)
Bit depth : 24 bits
Compression mode : Lossless
Delay relative to video : 1 s 0 ms
Stream size : 3.07 GiB (19%)
Title : DTS-HD Master Audio / 5.1 / 48 kHz / 3714 kbps / 24-bit
Language : English
Default : Yes
Forced : No

Audio #2
ID : 3
Format : AC-3
Format/Info : Audio Coding 3
Commercial name : Dolby Digital
Codec ID : A_AC3
Duration : 1 h 58 min
Bit rate mode : Constant
Bit rate : 640 kb/s
Channel(s) : 6 channels
Channel layout : L R C LFE Ls Rs
Sampling rate : 48.0 kHz
Frame rate : 31.250 FPS (1536 SPF)
Compression mode : Lossy
Delay relative to video : 1 s 0 ms
Stream size : 541 MiB (3%)
Language : English
Service kind : Complete Main
Default : Yes
Forced : No

Audio #3
ID : 4
Format : AAC LC
Format/Info : Advanced Audio Codec Low Complexity
Codec ID : A_AAC-2
Duration : 1 h 58 min
Bit rate : 125 kb/s
Channel(s) : 2 channels
Channel layout : L R
Sampling rate : 48.0 kHz
Frame rate : 46.875 FPS (1024 SPF)
Compression mode : Lossy
Stream size : 106 MiB (1%)
Language : English
Default : Yes
Forced : No

Text #1
ID : 5
Format : UTF-8
Codec ID : S_TEXT/UTF8
Codec ID/Info : UTF-8 Plain Text
Duration : 1 h 57 min
Bit rate : 57 b/s
Count of elements : 1343
Stream size : 49.4 KiB (0%)
Language : English
Default : Yes
Forced : No

Text #2
ID : 6
Format : UTF-8
Codec ID : S_TEXT/UTF8
Codec ID/Info : UTF-8 Plain Text
Duration : 1 h 57 min
Bit rate : 60 b/s
Count of elements : 1412
Stream size : 51.8 KiB (0%)
Title : SDH
Language : English
Default : No
Forced : No

Text #3
ID : 7
Format : PGS
Muxing mode : zlib
Codec ID : S_HDMV/PGS
Codec ID/Info : Picture based subtitle format used on BDs/HD-DVDs
Duration : 1 h 55 min
Bit rate : 27.7 kb/s
Count of elements : 2538
Stream size : 23.0 MiB (0%)
Language : English
Default : No
Forced : No

Text #4
ID : 8
Format : PGS
Muxing mode : zlib
Codec ID : S_HDMV/PGS
Codec ID/Info : Picture based subtitle format used on BDs/HD-DVDs
Duration : 1 h 57 min
Bit rate : 21.5 kb/s
Count of elements : 2968
Stream size : 18.1 MiB (0%)
Title : SDH
Language : English
Default : No
Forced : No

Text #5
ID : 9
Format : PGS
Muxing mode : zlib
Codec ID : S_HDMV/PGS
Codec ID/Info : Picture based subtitle format used on BDs/HD-DVDs
Duration : 1 h 55 min
Bit rate : 15.6 kb/s
Count of elements : 2484
Stream size : 13.0 MiB (0%)
Language : Arabic
Default : No
Forced : No

Text #6
ID : 10
Format : PGS
Muxing mode : zlib
Codec ID : S_HDMV/PGS
Codec ID/Info : Picture based subtitle format used on BDs/HD-DVDs
Duration : 1 h 55 min
Bit rate : 25.9 kb/s
Count of elements : 1872
Stream size : 21.5 MiB (0%)
Title : 中文(繁体)
Language : 中文
Default : No
Forced : No


Text #7
ID : 11
Format : PGS
Muxing mode : zlib
Codec ID : S_HDMV/PGS
Codec ID/Info : Picture based subtitle format used on BDs/HD-DVDs
Duration : 1 h 55 min
Bit rate : 24.6 kb/s
Count of elements : 2506
Stream size : 20.4 MiB (0%)
Language : Czech
Default : No
Forced : No

Text #8
ID : 12
Format : PGS
Muxing mode : zlib
Codec ID : S_HDMV/PGS
Codec ID/Info : Picture based subtitle format used on BDs/HD-DVDs
Duration : 1 h 55 min
Bit rate : 23.8 kb/s
Count of elements : 1964
Stream size : 19.8 MiB (0%)
Language : Danish
Default : No
Forced : No

Text #9
ID : 13
Format : PGS
Muxing mode : zlib
Codec ID : S_HDMV/PGS
Codec ID/Info : Picture based subtitle format used on BDs/HD-DVDs
Duration : 1 h 55 min
Bit rate : 25.9 kb/s
Count of elements : 2357
Stream size : 21.4 MiB (0%)
Language : Dutch
Default : No
Forced : No

Text #10
ID : 14
Format : PGS
Muxing mode : zlib
Codec ID : S_HDMV/PGS
Codec ID/Info : Picture based subtitle format used on BDs/HD-DVDs
Duration : 1 h 55 min
Bit rate : 24.1 kb/s
Count of elements : 1652
Stream size : 20.0 MiB (0%)
Language : Finnish
Default : No
Forced : No

Text #11
ID : 15
Format : PGS
Muxing mode : zlib
Codec ID : S_HDMV/PGS
Codec ID/Info : Picture based subtitle format used on BDs/HD-DVDs
Duration : 1 h 57 min
Bit rate : 23.0 kb/s
Count of elements : 2432
Stream size : 19.3 MiB (0%)
Language : French
Default : No
Forced : No

Text #12
ID : 16
Format : PGS
Muxing mode : zlib
Codec ID : S_HDMV/PGS
Codec ID/Info : Picture based subtitle format used on BDs/HD-DVDs
Duration : 1 h 55 min
Bit rate : 31.5 kb/s
Count of elements : 2488
Stream size : 26.1 MiB (0%)
Language : German
Default : No
Forced : No

Text #13
ID : 17
Format : PGS
Muxing mode : zlib
Codec ID : S_HDMV/PGS
Codec ID/Info : Picture based subtitle format used on BDs/HD-DVDs
Duration : 1 h 56 min
Bit rate : 24.9 kb/s
Count of elements : 2538
Stream size : 20.7 MiB (0%)
Language : Greek
Default : No
Forced : No

Text #14
ID : 18
Format : PGS
Muxing mode : zlib
Codec ID : S_HDMV/PGS
Codec ID/Info : Picture based subtitle format used on BDs/HD-DVDs
Duration : 1 h 55 min
Bit rate : 21.5 kb/s
Count of elements : 2442
Stream size : 17.8 MiB (0%)
Language : Hebrew
Default : No
Forced : No

Text #15
ID : 19
Format : PGS
Muxing mode : zlib
Codec ID : S_HDMV/PGS
Codec ID/Info : Picture based subtitle format used on BDs/HD-DVDs
Duration : 1 h 55 min
Bit rate : 21.6 kb/s
Count of elements : 2506
Stream size : 17.9 MiB (0%)
Language : Hindi
Default : No
Forced : No

Text #16
ID : 20
Format : PGS
Muxing mode : zlib
Codec ID : S_HDMV/PGS
Codec ID/Info : Picture based subtitle format used on BDs/HD-DVDs
Duration : 1 h 55 min
Bit rate : 23.9 kb/s
Count of elements : 2552
Stream size : 19.8 MiB (0%)
Language : Hungarian
Default : No
Forced : No

Text #17
ID : 21
Format : PGS
Muxing mode : zlib
Codec ID : S_HDMV/PGS
Codec ID/Info : Picture based subtitle format used on BDs/HD-DVDs
Duration : 1 h 55 min
Bit rate : 26.9 kb/s
Count of elements : 2506
Stream size : 22.3 MiB (0%)
Language : Italian
Default : No
Forced : No

Text #18
ID : 22
Format : PGS
Muxing mode : zlib
Codec ID : S_HDMV/PGS
Codec ID/Info : Picture based subtitle format used on BDs/HD-DVDs
Duration : 1 h 57 min
Bit rate : 19.2 kb/s
Count of elements : 2263
Stream size : 16.1 MiB (0%)
Language : Japanese
Default : No
Forced : No

Text #19
ID : 23
Format : PGS
Muxing mode : zlib
Codec ID : S_HDMV/PGS
Codec ID/Info : Picture based subtitle format used on BDs/HD-DVDs
Duration : 1 h 55 min
Bit rate : 19.2 kb/s
Count of elements : 1917
Stream size : 16.0 MiB (0%)
Language : Korean
Default : No
Forced : No

Text #20
ID : 24
Format : PGS
Muxing mode : zlib
Codec ID : S_HDMV/PGS
Codec ID/Info : Picture based subtitle format used on BDs/HD-DVDs
Duration : 1 h 55 min
Bit rate : 22.7 kb/s
Count of elements : 1698
Stream size : 18.9 MiB (0%)
Language : Norwegian
Default : No
Forced : No

Text #21
ID : 25
Format : PGS
Muxing mode : zlib
Codec ID : S_HDMV/PGS
Codec ID/Info : Picture based subtitle format used on BDs/HD-DVDs
Duration : 1 h 55 min
Bit rate : 23.4 kb/s
Count of elements : 2462
Stream size : 19.4 MiB (0%)
Language : Polish
Default : No
Forced : No

Text #22
ID : 26
Format : PGS
Muxing mode : zlib
Codec ID : S_HDMV/PGS
Codec ID/Info : Picture based subtitle format used on BDs/HD-DVDs
Duration : 1 h 56 min
Bit rate : 29.5 kb/s
Count of elements : 2377
Stream size : 24.7 MiB (0%)
Language : Portuguese
Default : No
Forced : No

Text #23
ID : 27
Format : PGS
Muxing mode : zlib
Codec ID : S_HDMV/PGS
Codec ID/Info : Picture based subtitle format used on BDs/HD-DVDs
Duration : 1 h 55 min
Bit rate : 25.2 kb/s
Count of elements : 2554
Stream size : 20.9 MiB (0%)
Title : Castilian
Language : Spanish
Default : No
Forced : No

Text #24
ID : 28
Format : PGS
Muxing mode : zlib
Codec ID : S_HDMV/PGS
Codec ID/Info : Picture based subtitle format used on BDs/HD-DVDs
Duration : 1 h 55 min
Bit rate : 31.8 kb/s
Count of elements : 2603
Stream size : 26.4 MiB (0%)
Title : Latin American
Language : Spanish
Default : No
Forced : No

Text #25
ID : 29
Format : PGS
Muxing mode : zlib
Codec ID : S_HDMV/PGS
Codec ID/Info : Picture based subtitle format used on BDs/HD-DVDs
Duration : 1 h 55 min
Bit rate : 23.7 kb/s
Count of elements : 1726
Stream size : 19.7 MiB (0%)
Language : Swedish
Default : No
Forced : No

Text #26
ID : 30
Format : PGS
Muxing mode : zlib
Codec ID : S_HDMV/PGS
Codec ID/Info : Picture based subtitle format used on BDs/HD-DVDs
Duration : 1 h 55 min
Bit rate : 22.9 kb/s
Count of elements : 1714
Stream size : 19.0 MiB (0%)
Language : Thai
Default : No
Forced : No

Text #27
ID : 31
Format : PGS
Muxing mode : zlib
Codec ID : S_HDMV/PGS
Codec ID/Info : Picture based subtitle format used on BDs/HD-DVDs
Duration : 1 h 55 min
Bit rate : 25.3 kb/s
Count of elements : 2516
Stream size : 21.0 MiB (0%)
Language : Turkish
Default : No
Forced : No


◎获奖情况 (共6项)
  第46届奥斯卡金像奖 (1974)
  最佳女主角(提名) 芭芭拉·史翠珊
  最佳摄影(提名) 哈利·斯特拉德
  最佳艺术指导(提名)
  最佳服装设计(提名)
  剧情片最佳原创配乐 马文·哈姆利奇
  最佳原创歌曲


资源速度为零或资源敏感被和谐时,推荐使用qBittorrent等下载软件,有条件的推荐115更好的下载软件!

下载地址:

游客,如果您要查看本帖隐藏内容请回复





上一篇:大寒 / The Big Chill (1983) 4K高清版本下载
下一篇:世上最快的印第安摩托 (2005) 4K高清版本下载
回复

使用道具 举报

48

主题

1504

帖子

4330

积分

4K家园VIP

Rank: 9Rank: 9Rank: 9

积分
4330
发表于 2022-6-20 11:15:35 | 显示全部楼层
呵呵。。。
回复 支持 反对

使用道具 举报

1

主题

1209

帖子

3649

积分

4K家园VIP

Rank: 9Rank: 9Rank: 9

积分
3649
发表于 2022-6-20 11:24:51 | 显示全部楼层
顶起出售广告位
回复 支持 反对

使用道具 举报

0

主题

120

帖子

5912

积分

高级会员

Rank: 3Rank: 3

积分
5912
发表于 2022-6-20 13:22:18 | 显示全部楼层
这是个经典之作,不错哦
回复 支持 反对

使用道具 举报

0

主题

1385

帖子

3989

积分

中级会员

Rank: 4

积分
3989
发表于 7 天前 | 显示全部楼层
你们要是有4K资源记得分享,别小气
回复 支持 反对

使用道具 举报

0

主题

1569

帖子

4307

积分

4K家园VIP

Rank: 9Rank: 9Rank: 9

积分
4307
发表于 5 天前 | 显示全部楼层
前排顶起
回复 支持 反对

使用道具 举报

1

主题

1367

帖子

4115

积分

4K家园VIP

Rank: 9Rank: 9Rank: 9

积分
4115
发表于 5 天前 | 显示全部楼层
鄙视楼下的顶帖没我快,哈哈
回复 支持 反对

使用道具 举报

您需要登录后才可以回帖 登录 | 立即注册

本版积分规则

精彩图文
Archiver|手机版|TAG|Sitemap|新帖|专题|联系我们:邮箱: 4kjia.com@gmail.com   

4k家园   ©2019