[4K电影] 星际旅行8:第一类接触 (1996) 4K高清版本下载

[复制链接]

2299

主题

2448

帖子

1万

积分

超级版主

Rank: 8Rank: 8

积分
17752
 楼主| 发表于 2022-6-23 09:58:40 | 显示全部楼层 |阅读模式
QQ图片20220623094206_副本.png

◎译  名 星际旅行8:第一类接触/星空奇遇记8:星空第一击(港)/星际争霸战8/星际迷航8:第一次接触/星舰奇航记8:战斗巡航(台)/星舰迷航记8/Star Trek 8
◎片  名 Star Trek: First Contact
◎年  代 1996
◎产  地 美国
◎类  别 动作/科幻/惊悚/冒险
◎语  言 英语
◎上映日期 1996-11-22
◎IMDb评分  7.6/10 from 124645 users
◎IMDb链接  https://www.imdb.com/title/tt0117731/
◎豆瓣评分 7.9/10 from 7590 users
◎豆瓣链接 https://douban.com/subject/1299888/
◎片  长 111 分钟
◎导  演 乔纳森·弗雷克斯 Jonathan Frakes
◎编  剧 布兰农·布拉加 Brannon Braga / 罗纳德·D·摩尔 Ronald D. Moore / 吉恩·罗登贝瑞 Gene Roddenberry / Rick Berman
◎主  演 帕特里克·斯图尔特 Patrick Stewart
       乔纳森·弗雷克斯 Jonathan Frakes
       布伦特·斯皮内 Brent Spiner
       莱瓦尔·伯顿 LeVar Burton
       迈克尔·多恩 Michael Dorn
       盖茨·麦克法登 Gates McFadden
       玛丽娜·赛提斯 Marina Sirtis
       阿尔法·伍达德 Alfre Woodard
       詹姆斯·克伦威尔 James Cromwell
       艾丽丝·克里奇 Alice Krige
       尼尔·麦克唐纳 Neal McDonough
       马尼耶·麦克费尔 Marnie McPhail
       罗伯特·皮卡多 Robert Picardo
       德怀特·舒尔茨 Dwight Schultz
       亚当·斯科特 Adam Scott
       乔伊·阿那亚 Joey Anaya
       斯科特·哈文 Scott Haven
       伊桑·菲利普斯 Ethan Phillips
       罗纳德·D·摩尔 Ronald D. Moore
       大卫·考吉尔 David Cowgill
       唐·斯达克 Don Stark
       Jon David Casey
       Michael Zaslow
       佩蒂·安武 Patti Yasutake
       马杰尔·巴雷特 Majel Barrett
       杰夫·库普伍德 Jeff Coopwood
       布兰农·布拉加 Brannon Braga



◎简  介


  本片是以地球人与瓦肯人的“第一类接触”事件为背景,将重心放在《星际迷航之下一代》电视系列剧中的大敌『博格人』。
  企业号正在宇宙空间做例行巡航时,舰长皮卡特接到密电,称博格人已联合其他星系的力量,准备向地球发起攻击。由于舰长皮卡特曾受敌方俘虏并同化,星际舰队对其不很信任,故没有派其出战。皮卡特不顾命令,仍然参与战斗,之后企业号跟随博格人的时间漩涡回到21世纪,以阻挡博格人试图改变人类的外星发展史达到征服地球的企图。


◎获奖情况

  第69届奥斯卡金像奖  (1997)
  最佳化妆(提名) 杰克·加伯 / 迈克尔·韦斯特莫 / 斯科特·维勒尔

Video
ID : 1
Format : HEVC
Format/Info : High Efficiency Video Coding
Format profile : Main 10@L5@Main
HDR format : SMPTE ST 2094 App 4, Version 1, HDR10+ Profile B compatible
Codec ID : V_MPEGH/ISO/HEVC
Duration : 1 h 50 min
Bit rate : 14.0 Mb/s
Width : 3 840 pixels
Height : 2 160 pixels
Display aspect ratio : 16:9
Frame rate mode : Constant
Frame rate : 23.976 (24000/1001) FPS
Color space : YUV
Chroma subsampling : 4:2:0 (Type 2)
Bit depth : 10 bits
Bits/(Pixel*Frame) : 0.070
Stream size : 10.8 GiB (62%)
Language : English
Default : Yes
Forced : No
Color range : Limited
Color primaries : BT.2020
Transfer characteristics : PQ
Matrix coefficients : BT.2020 non-constant
Mastering display color primaries : Display P3
Mastering display luminance : min: 0.0050 cd/m2, max: 4000 cd/m2

Audio #1
ID : 2
Format : MLP FBA
Format/Info : Meridian Lossless Packing FBA
Commercial name : Dolby TrueHD
Codec ID : A_TRUEHD
Duration : 1 h 50 min
Bit rate mode : Variable
Bit rate : 3 898 kb/s
Maximum bit rate : 5 340 kb/s
Channel(s) : 6 channels
Channel layout : L R C LFE Ls Rs
Sampling rate : 48.0 kHz
Frame rate : 1 200.000 FPS (40 SPF)
Compression mode : Lossless
Stream size : 3.01 GiB (17%)
Language : English
Default : Yes
Forced : No

Audio #2
ID : 3
Format : DTS XLL
Format/Info : Digital Theater Systems
Commercial name : DTS-HD Master Audio
Codec ID : A_DTS
Duration : 1 h 50 min
Bit rate mode : Variable
Bit rate : 4 251 kb/s
Channel(s) : 6 channels
Channel layout : C L R Ls Rs LFE
Sampling rate : 48.0 kHz
Frame rate : 93.750 FPS (512 SPF)
Bit depth : 24 bits
Compression mode : Lossless
Delay relative to video : 6 ms
Stream size : 3.29 GiB (19%)
Language : English
Default : No
Forced : No

Audio #3
ID : 4
Format : E-AC-3
Format/Info : Enhanced AC-3
Commercial name : Dolby Digital Plus
Codec ID : A_EAC3
Duration : 1 h 50 min
Bit rate mode : Constant
Bit rate : 192 kb/s
Channel(s) : 6 channels
Channel layout : L R C LFE Ls Rs
Sampling rate : 48.0 kHz
Frame rate : 31.250 FPS (1536 SPF)
Compression mode : Lossy
Stream size : 152 MiB (1%)
Language : English
Service kind : Complete Main
Default : No
Forced : No

Text #1
ID : 5
Format : UTF-8
Codec ID : S_TEXT/UTF8
Codec ID/Info : UTF-8 Plain Text
Duration : 1 h 44 min
Bit rate : 54 b/s
Count of elements : 1305
Stream size : 42.1 KiB (0%)
Language : English
Default : No
Forced : No

Text #2
ID : 6
Format : PGS
Muxing mode : zlib
Codec ID : S_HDMV/PGS
Codec ID/Info : Picture based subtitle format used on BDs/HD-DVDs
Duration : 1 h 47 min
Bit rate : 14.7 kb/s
Count of elements : 1468
Stream size : 11.2 MiB (0%)
Language : Arabic
Default : No
Forced : No

Text #3
ID : 7
Format : PGS
Muxing mode : zlib
Codec ID : S_HDMV/PGS
Codec ID/Info : Picture based subtitle format used on BDs/HD-DVDs
Duration : 1 h 47 min
Bit rate : 25.8 kb/s
Count of elements : 1594
Stream size : 19.8 MiB (0%)
Language : Danish
Default : No
Forced : No

Text #4
ID : 8
Format : PGS
Muxing mode : zlib
Codec ID : S_HDMV/PGS
Codec ID/Info : Picture based subtitle format used on BDs/HD-DVDs
Duration : 1 h 50 min
Bit rate : 30.3 kb/s
Count of elements : 2187
Stream size : 23.9 MiB (0%)
Language : German
Default : No
Forced : No

Text #5
ID : 9
Format : PGS
Muxing mode : zlib
Codec ID : S_HDMV/PGS
Codec ID/Info : Picture based subtitle format used on BDs/HD-DVDs
Duration : 1 h 40 min
Bit rate : 33.6 kb/s
Count of elements : 2070
Stream size : 24.3 MiB (0%)
Language : English
Default : No
Forced : No

Text #6
ID : 10
Format : PGS
Muxing mode : zlib
Codec ID : S_HDMV/PGS
Codec ID/Info : Picture based subtitle format used on BDs/HD-DVDs
Duration : 1 h 50 min
Bit rate : 32.7 kb/s
Count of elements : 2314
Stream size : 25.7 MiB (0%)
Language : Spanish
Default : No
Forced : No

Text #7
ID : 11
Format : PGS
Muxing mode : zlib
Codec ID : S_HDMV/PGS
Codec ID/Info : Picture based subtitle format used on BDs/HD-DVDs
Duration : 1 h 50 min
Bit rate : 24.1 kb/s
Count of elements : 2228
Stream size : 19.0 MiB (0%)
Language : French
Default : No
Forced : No

Text #8
ID : 12
Format : PGS
Muxing mode : zlib
Codec ID : S_HDMV/PGS
Codec ID/Info : Picture based subtitle format used on BDs/HD-DVDs
Duration : 1 h 47 min
Bit rate : 25.9 kb/s
Count of elements : 1466
Stream size : 19.8 MiB (0%)
Language : Croatian
Default : No
Forced : No

Text #9
ID : 13
Format : PGS
Muxing mode : zlib
Codec ID : S_HDMV/PGS
Codec ID/Info : Picture based subtitle format used on BDs/HD-DVDs
Duration : 1 h 50 min
Bit rate : 31.7 kb/s
Count of elements : 2306
Stream size : 25.0 MiB (0%)
Language : Italian
Default : No
Forced : No

Text #10
ID : 14
Format : PGS
Muxing mode : zlib
Codec ID : S_HDMV/PGS
Codec ID/Info : Picture based subtitle format used on BDs/HD-DVDs
Duration : 1 h 47 min
Bit rate : 22.9 kb/s
Count of elements : 1664
Stream size : 17.6 MiB (0%)
Language : Dutch
Default : No
Forced : No

Text #11
ID : 15
Format : PGS
Muxing mode : zlib
Codec ID : S_HDMV/PGS
Codec ID/Info : Picture based subtitle format used on BDs/HD-DVDs
Duration : 1 h 47 min
Bit rate : 24.6 kb/s
Count of elements : 1543
Stream size : 18.8 MiB (0%)
Language : Norwegian
Default : No
Forced : No

Text #12
ID : 16
Format : PGS
Muxing mode : zlib
Codec ID : S_HDMV/PGS
Codec ID/Info : Picture based subtitle format used on BDs/HD-DVDs
Duration : 1 h 50 min
Bit rate : 29.4 kb/s
Count of elements : 2180
Stream size : 23.1 MiB (0%)
Language : Portuguese
Default : No
Forced : No

Text #13
ID : 17
Format : PGS
Muxing mode : zlib
Codec ID : S_HDMV/PGS
Codec ID/Info : Picture based subtitle format used on BDs/HD-DVDs
Duration : 1 h 47 min
Bit rate : 24.8 kb/s
Count of elements : 1456
Stream size : 19.0 MiB (0%)
Language : Finnish
Default : No
Forced : No

Text #14
ID : 18
Format : PGS
Muxing mode : zlib
Codec ID : S_HDMV/PGS
Codec ID/Info : Picture based subtitle format used on BDs/HD-DVDs
Duration : 1 h 47 min
Bit rate : 23.8 kb/s
Count of elements : 1554
Stream size : 18.2 MiB (0%)
Language : Swedish
Default : No
Forced : No

Menu
00:00:00.000 : en:00:00:00.000
00:02:48.668 : en:00:02:48.668
00:04:45.243 : en:00:04:45.243
00:07:30.784 : en:00:07:30.784
00:11:52.629 : en:00:11:52.629
00:13:54.917 : en:00:13:54.917
00:17:21.958 : en:00:17:21.958
00:22:25.636 : en:00:22:25.636
00:24:24.838 : en:00:24:24.838
00:25:52.885 : en:00:25:52.885
00:27:08.752 : en:00:27:08.752
00:28:10.063 : en:00:28:10.063
00:31:14.289 : en:00:31:14.289
00:37:50.935 : en:00:37:50.935
00:39:16.354 : en:00:39:16.354
00:43:52.171 : en:00:43:52.171
00:46:13.604 : en:00:46:13.604
00:49:17.580 : en:00:49:17.580
00:55:11.850 : en:00:55:11.850
00:58:20.122 : en:00:58:20.122
01:01:31.730 : en:01:01:31.730
01:05:16.287 : en:01:05:16.287
01:13:52.261 : en:01:13:52.261
01:16:24.079 : en:01:16:24.079
01:23:20.704 : en:01:23:20.704
01:25:36.548 : en:01:25:36.548
01:28:45.153 : en:01:28:45.153
01:33:33.775 : en:01:33:33.775
01:37:31.637 : en:01:37:31.637
01:39:59.827 : en:01:39:59.827
01:45:34.912 : en:01:45:34.912


资源速度为零或资源敏感被和谐时,推荐使用qBittorrent等下载软件,有条件的推荐115更好的下载软件!

下载地址:


游客,如果您要查看本帖隐藏内容请回复





上一篇:隐秘的生活 [简繁中字] / A Hidden Life (2019) 4K高清版本下载
下一篇:维多利亚与阿卜杜勒 / Victoria and Abdul (2017) 4K高清版本下载
回复

使用道具 举报

47

主题

1488

帖子

4258

积分

4K家园VIP

Rank: 9Rank: 9Rank: 9

积分
4258
发表于 2022-6-23 09:58:48 来自手机 | 显示全部楼层
顶起出售广告位
回复 支持 反对

使用道具 举报

0

主题

468

帖子

2853

积分

注册会员

Rank: 2

积分
2853
发表于 2022-6-23 11:06:04 | 显示全部楼层
谢谢楼主分享
回复 支持 反对

使用道具 举报

0

主题

4

帖子

15

积分

新手上路

Rank: 1

积分
15
发表于 2022-6-23 15:23:35 | 显示全部楼层
支持下,谢谢分享
回复 支持 反对

使用道具 举报

0

主题

8

帖子

2929

积分

4K家园VIP

Rank: 9Rank: 9Rank: 9

积分
2929
发表于 2022-6-27 12:03:28 | 显示全部楼层
链接不对???
回复

使用道具 举报

0

主题

1238

帖子

3728

积分

4K家园VIP

Rank: 9Rank: 9Rank: 9

积分
3728
发表于 2022-7-1 05:16:21 | 显示全部楼层
你们要是有4K资源记得分享,别小气
回复 支持 反对

使用道具 举报

3

主题

1621

帖子

4459

积分

4K家园VIP

Rank: 9Rank: 9Rank: 9

积分
4459
发表于 2022-7-2 09:24:20 来自手机 | 显示全部楼层
在撸一遍。。。
回复 支持 反对

使用道具 举报

2

主题

1205

帖子

3633

积分

4K家园VIP

Rank: 9Rank: 9Rank: 9

积分
3633
发表于 2022-7-2 15:17:22 来自手机 | 显示全部楼层
广告位,,坐下看看
回复 支持 反对

使用道具 举报

4

主题

1321

帖子

3983

积分

4K家园VIP

Rank: 9Rank: 9Rank: 9

积分
3983
发表于 2022-7-4 07:29:43 | 显示全部楼层
看帖要回,回帖才健康,在踩踩,楼主辛苦了!
回复 支持 反对

使用道具 举报

您需要登录后才可以回帖 登录 | 立即注册

本版积分规则

精彩图文
Archiver|手机版|TAG|Sitemap|新帖|专题|联系我们:邮箱: 4kjia.com@gmail.com   

4k家园   ©2019