欧比旺 [简繁粤中字] (2022) 第一季/全6集/ 4K高清版本下载

[复制链接]

194

主题

217

帖子

2109

积分

版主

Rank: 7Rank: 7Rank: 7

积分
2109
 楼主| 发表于 2022-6-24 10:49:24 | 显示全部楼层 |阅读模式
p2874253534_副本.png

◎标  题 欧比旺
◎译  名 欧比-旺·克诺比 / 星球大战外传:欧比旺 / 欧比王肯诺比(台)
◎片  名 Obi-Wan Kenobi
◎年  代 2022
◎产  地 美国
◎类  别 动作 / 科幻 / 冒险
◎语  言 英语
◎上映日期 2022-05-27(美国)
◎IMDb评分  7.2/10 from 84970 users
◎IMDb链接  https://www.imdb.com/title/tt8466564/
◎IMDb评分  7.0/10 from 7329 users
◎豆瓣链接 https://movie.douban.com/subject/27668664/
◎片  长 39-55分钟
◎导  演 黛博拉·周 Deborah Chow
◎编  剧 卓比·哈罗德 Joby Harold / 霍辛·阿米尼 Hossein Amini / 斯图尔特·贝亚蒂耶 Stuart Beattie / 乔治·卢卡斯 George Lucas / 汉娜·弗里德曼 Hannah Friedman
◎演  员 伊万·麦克格雷格 Ewan McGregor
       海登·克里斯滕森 Hayden Christensen
       摩西·英格拉姆 Moses Ingram
       姜成镐 Sung Kang
       维维恩·莱拉·布莱尔 Vivien Lyra Blair
       弗利 Flea
       因迪拉·瓦玛 Indira Varma
       格兰特·菲利 Grant Feely
       乔尔·埃哲顿 Joel Edgerton
       邦妮·皮耶斯 Bonnie Piesse
       库梅尔·南贾尼 Kumail Nanjiani
       鲁伯特·弗兰德 Rupert Friend
       本·萨弗迪 Ben Safdie
       莱亚·吉斯特德 Rya Kihlstedt
       西蒙娜·凯塞尔 Simone Kessell
       吉米·斯密茨 Jimmy Smits
       特穆拉·莫里森 Temuera Morrison
       艾斯特-罗丝·麦克格雷格 Esther-Rose McGregor
       马里斯·阿尔瓦雷斯 Marisé Álvarez
       玛雅·厄斯金 Maya Erskine
       小奥谢拉·杰克逊 O'Shea Jackson Jr.
       刘明 Ming Liu
       德里克·巴斯科 Derek Basco
       罗伯塔·斯巴达 Roberta Sparta
       安东尼·丹尼尔斯 Anthony Daniels
       黛博拉·周 Deborah Chow
       伊万·麦克格雷格 Ewan McGregor
       凯瑟琳·肯尼迪 Kathleen Kennedy
       米歇尔·雷万 Michelle Rejwan
       卓比·哈罗德 Joby Harold
       托马斯·海斯利普 Thomas Hayslip
       汉娜·弗里德曼 Hannah Friedman
       卡特里·弗劳恩费尔德 Katterli Frauenfelder
       约翰·威廉姆斯 John Williams
       娜塔莉·霍尔特 Natalie Ann Holt
       威廉·罗斯 William Ross
       苏蒂拉特·安妮·拉布 Suttirat Anne Larlarb


◎简  介


  伊万·麦克格雷格回归饰演绝地大师欧比旺,海登·克里斯滕森回归饰演达斯·维达,摩西·英格拉姆、乔尔·埃哲顿、Bonnie Piesse、库梅尔·南贾尼、因迪拉·瓦玛、鲁伯特·弗兰德、小奥谢拉·杰克逊、成康、西蒙娜·凯塞尔、本·萨弗迪也出演。
本剧时间设定在《星战前传:西斯的复仇》之后10年。黛博拉·周(《曼达洛人》)执导,制作也用到了《曼达洛人》著名的StageCraft技术,进行片场LED投屏景观拍摄。

Video
ID : 1
Format : HEVC
Format/Info : High Efficiency Video Coding
Format profile : Main 10@L5@High
HDR format : Dolby Vision, Version 1.0, dvhe.05.06, BL+RPU
Codec ID : V_MPEGH/ISO/HEVC
Duration : 52 min 28 s
Bit rate : 15.5 Mb/s
Width : 3 840 pixels
Height : 2 160 pixels
Display aspect ratio : 16:9
Frame rate mode : Constant
Frame rate : 24.000 FPS
Color space : YUV
Chroma subsampling : 4:2:0
Bit depth : 10 bits
Bits/(Pixel*Frame) : 0.078
Stream size : 5.68 GiB (95%)
Language : English
Default : Yes
Forced : No
Color range : Full

Audio
ID : 2
Format : E-AC-3 JOC
Format/Info : Enhanced AC-3 with Joint Object Coding
Commercial name : Dolby Digital Plus with Dolby Atmos
Codec ID : A_EAC3
Duration : 52 min 28 s
Bit rate mode : Constant
Bit rate : 768 kb/s
Channel(s) : 6 channels
Channel layout : L R C LFE Ls Rs
Sampling rate : 48.0 kHz
Frame rate : 31.250 FPS (1536 SPF)
Compression mode : Lossy
Stream size : 288 MiB (5%)
Language : English
Service kind : Complete Main
Default : Yes
Forced : No
Complexity index : 16
Number of dynamic objects : 15
Bed channel count : 1 channel
Bed channel configuration : LFE

Text #1
ID : 3
Format : UTF-8
Codec ID : S_TEXT/UTF8
Codec ID/Info : UTF-8 Plain Text
Duration : 48 min 23 s
Bit rate : 45 b/s
Count of elements : 619
Stream size : 16.0 KiB (0%)
Title : English (SDH)
Language : English
Default : No
Forced : No

Text #2
ID : 4
Format : UTF-8
Codec ID : S_TEXT/UTF8
Codec ID/Info : UTF-8 Plain Text
Duration : 52 min 18 s
Bit rate : 33 b/s
Count of elements : 500
Stream size : 12.9 KiB (0%)
Title : �eština
Language : Czech
Default : No
Forced : No

Text #3
ID : 5
Format : UTF-8
Codec ID : S_TEXT/UTF8
Codec ID/Info : UTF-8 Plain Text
Duration : 52 min 18 s
Bit rate : 33 b/s
Count of elements : 330
Stream size : 13.0 KiB (0%)
Title : Dansk
Language : Danish
Default : No
Forced : No

Text #4
ID : 6
Format : UTF-8
Codec ID : S_TEXT/UTF8
Codec ID/Info : UTF-8 Plain Text
Duration : 52 min 18 s
Bit rate : 39 b/s
Count of elements : 511
Stream size : 14.9 KiB (0%)
Title : Deutsch
Language : German
Default : No
Forced : No

Text #5
ID : 7
Format : UTF-8
Codec ID : S_TEXT/UTF8
Codec ID/Info : UTF-8 Plain Text
Duration : 52 min 18 s
Bit rate : 60 b/s
Count of elements : 502
Stream size : 23.3 KiB (0%)
Title : Greek
Language : Greek
Default : No
Forced : No

Text #6
ID : 8
Format : UTF-8
Codec ID : S_TEXT/UTF8
Codec ID/Info : UTF-8 Plain Text
Duration : 52 min 18 s
Bit rate : 34 b/s
Count of elements : 502
Stream size : 13.1 KiB (0%)
Title : Español (Latinoamericano)
Language : Spanish
Default : No
Forced : No

Text #7
ID : 9
Format : UTF-8
Codec ID : S_TEXT/UTF8
Codec ID/Info : UTF-8 Plain Text
Duration : 52 min 18 s
Bit rate : 34 b/s
Count of elements : 499
Stream size : 13.4 KiB (0%)
Title : Español
Language : Spanish
Default : No
Forced : No

Text #8
ID : 10
Format : UTF-8
Codec ID : S_TEXT/UTF8
Codec ID/Info : UTF-8 Plain Text
Duration : 52 min 18 s
Bit rate : 34 b/s
Count of elements : 498
Stream size : 13.3 KiB (0%)
Title : Suomi
Language : Finnish
Default : No
Forced : No

Text #9
ID : 11
Format : UTF-8
Codec ID : S_TEXT/UTF8
Codec ID/Info : UTF-8 Plain Text
Duration : 52 min 18 s
Bit rate : 33 b/s
Count of elements : 504
Stream size : 12.9 KiB (0%)
Title : Français
Language : French
Default : No
Forced : No

Text #10
ID : 12
Format : UTF-8
Codec ID : S_TEXT/UTF8
Codec ID/Info : UTF-8 Plain Text
Duration : 47 min 55 s
Bit rate : 37 b/s
Count of elements : 504
Stream size : 13.1 KiB (0%)
Title : Français (Canadien)
Language : French
Default : No
Forced : No

Text #11
ID : 13
Format : UTF-8
Codec ID : S_TEXT/UTF8
Codec ID/Info : UTF-8 Plain Text
Duration : 52 min 18 s
Bit rate : 34 b/s
Count of elements : 502
Stream size : 13.3 KiB (0%)
Title : Magyar
Language : Hungarian
Default : No
Forced : No

Text #12
ID : 14
Format : UTF-8
Codec ID : S_TEXT/UTF8
Codec ID/Info : UTF-8 Plain Text
Duration : 52 min 18 s
Bit rate : 35 b/s
Count of elements : 502
Stream size : 13.6 KiB (0%)
Title : Italiano
Language : Italian
Default : No
Forced : No

Text #13
ID : 15
Format : UTF-8
Codec ID : S_TEXT/UTF8
Codec ID/Info : UTF-8 Plain Text
Duration : 52 min 18 s
Bit rate : 34 b/s
Count of elements : 460
Stream size : 13.1 KiB (0%)
Title : Japanese
Language : Japanese
Default : No
Forced : No

Text #14
ID : 16
Format : UTF-8
Codec ID : S_TEXT/UTF8
Codec ID/Info : UTF-8 Plain Text
Duration : 52 min 18 s
Bit rate : 38 b/s
Count of elements : 505
Stream size : 14.8 KiB (0%)
Title : Korean
Language : Korean
Default : No
Forced : No

Text #15
ID : 17
Format : UTF-8
Codec ID : S_TEXT/UTF8
Codec ID/Info : UTF-8 Plain Text
Duration : 52 min 18 s
Bit rate : 34 b/s
Count of elements : 439
Stream size : 13.1 KiB (0%)
Title : Nederlands
Language : Dutch
Default : No
Forced : No

Text #16
ID : 18
Format : UTF-8
Codec ID : S_TEXT/UTF8
Codec ID/Info : UTF-8 Plain Text
Duration : 52 min 18 s
Bit rate : 32 b/s
Count of elements : 502
Stream size : 12.3 KiB (0%)
Title : Norsk
Language : Norwegian
Default : No
Forced : No

Text #17
ID : 19
Format : UTF-8
Codec ID : S_TEXT/UTF8
Codec ID/Info : UTF-8 Plain Text
Duration : 52 min 18 s
Bit rate : 33 b/s
Count of elements : 491
Stream size : 12.7 KiB (0%)
Title : Polski
Language : Polish
Default : No
Forced : No

Text #18
ID : 20
Format : UTF-8
Codec ID : S_TEXT/UTF8
Codec ID/Info : UTF-8 Plain Text
Duration : 52 min 18 s
Bit rate : 33 b/s
Count of elements : 502
Stream size : 12.8 KiB (0%)
Title : Português
Language : Portuguese
Default : No
Forced : No

Text #19
ID : 21
Format : UTF-8
Codec ID : S_TEXT/UTF8
Codec ID/Info : UTF-8 Plain Text
Duration : 52 min 18 s
Bit rate : 36 b/s
Count of elements : 502
Stream size : 14.1 KiB (0%)
Title : Português (Brasil)
Language : Portuguese
Default : No
Forced : No

Text #20
ID : 22
Format : UTF-8
Codec ID : S_TEXT/UTF8
Codec ID/Info : UTF-8 Plain Text
Duration : 52 min 18 s
Bit rate : 35 b/s
Count of elements : 503
Stream size : 13.5 KiB (0%)
Title : Român�
Language : Romanian
Default : No
Forced : No

Text #21
ID : 23
Format : UTF-8
Codec ID : S_TEXT/UTF8
Codec ID/Info : UTF-8 Plain Text
Duration : 52 min 18 s
Bit rate : 33 b/s
Count of elements : 502
Stream size : 12.8 KiB (0%)
Title : Sloven�ina
Language : Slovak
Default : No
Forced : No

Text #22
ID : 24
Format : UTF-8
Codec ID : S_TEXT/UTF8
Codec ID/Info : UTF-8 Plain Text
Duration : 52 min 18 s
Bit rate : 34 b/s
Count of elements : 405
Stream size : 13.4 KiB (0%)
Title : Svenska
Language : Swedish
Default : No
Forced : No

Text #23
ID : 25
Format : UTF-8
Codec ID : S_TEXT/UTF8
Codec ID/Info : UTF-8 Plain Text
Duration : 52 min 18 s
Bit rate : 36 b/s
Count of elements : 503
Stream size : 14.2 KiB (0%)
Title : Türkçe
Language : Turkish
Default : No
Forced : No

Text #24
ID : 26
Format : UTF-8
Codec ID : S_TEXT/UTF8
Codec ID/Info : UTF-8 Plain Text
Duration : 52 min 18 s
Bit rate : 30 b/s
Count of elements : 505
Stream size : 11.9 KiB (0%)
Title : 中文(粤语)
Language : 中文
Default : No
Forced : No

Text #25
ID : 27
Format : UTF-8
Codec ID : S_TEXT/UTF8
Codec ID/Info : UTF-8 Plain Text
Duration : 52 min 18 s
Bit rate : 28 b/s
Count of elements : 503
Stream size : 10.7 KiB (0%)
Title : 中文(繁体)
Language : 中文
Default : No
Forced : No

Text #26
ID : 28
Format : UTF-8
Codec ID : S_TEXT/UTF8
Codec ID/Info : UTF-8 Plain Text
Duration : 52 min 18 s
Bit rate : 29 b/s
Count of elements : 505
Stream size : 11.4 KiB (0%)
Title : 中文(简体)
Language : 中文
Default : No
Forced : No
下载地址:

游客,如果您要查看本帖隐藏内容请回复

游客,如果您要查看本帖隐藏内容请回复

游客,如果您要查看本帖隐藏内容请回复

游客,如果您要查看本帖隐藏内容请回复





上一篇:我变美的那夏天[简繁中字](2022)第一季/全10集/4K高清版本下载
下一篇:克洛伊的完美生活 [简繁中字] (2022) 第一季/全6集/4K高清下载
回复

使用道具 举报

11

主题

1276

帖子

3812

积分

4K家园VIP

Rank: 9Rank: 9Rank: 9

积分
3812
发表于 2022-6-24 10:54:26 来自手机 | 显示全部楼层
垃圾
回复 支持 反对

使用道具 举报

0

主题

3

帖子

72

积分

4K家园VIP

Rank: 9Rank: 9Rank: 9

积分
72
发表于 2022-6-24 11:25:09 | 显示全部楼层
好电影
回复

使用道具 举报

4

主题

1336

帖子

4028

积分

4K家园VIP

Rank: 9Rank: 9Rank: 9

积分
4028
发表于 2022-6-24 12:49:36 | 显示全部楼层
传说中的沙发???哇卡卡
回复 支持 反对

使用道具 举报

1

主题

1353

帖子

4075

积分

4K家园VIP

Rank: 9Rank: 9Rank: 9

积分
4075
发表于 2022-6-24 13:25:18 | 显示全部楼层
好,很好,非常好!
回复 支持 反对

使用道具 举报

1

主题

1310

帖子

3956

积分

4K家园VIP

Rank: 9Rank: 9Rank: 9

积分
3956
发表于 2022-6-24 15:11:53 | 显示全部楼层
路过
回复 支持 反对

使用道具 举报

5

主题

1483

帖子

4281

积分

4K家园VIP

Rank: 9Rank: 9Rank: 9

积分
4281
发表于 2022-6-25 06:22:36 来自手机 | 显示全部楼层
试试先,好用再说
回复 支持 反对

使用道具 举报

0

主题

7

帖子

80

积分

新手上路

Rank: 1

积分
80
发表于 2022-6-25 14:17:32 | 显示全部楼层
星战系列
回复

使用道具 举报

0

主题

1

帖子

10

积分

新手上路

Rank: 1

积分
10
发表于 2022-6-26 11:19:19 | 显示全部楼层
来了来了
回复

使用道具 举报

0

主题

2

帖子

46

积分

4K家园VIP

Rank: 9Rank: 9Rank: 9

积分
46
发表于 2022-7-9 13:26:08 | 显示全部楼层
谢谢!!!!!!!!!!!!!!!!!!!!!!!!!!
回复

使用道具 举报

您需要登录后才可以回帖 登录 | 立即注册

本版积分规则

精彩图文
Archiver|手机版|TAG|Sitemap|新帖|专题|联系我们:邮箱: 4kjia.com@gmail.com   

4k家园   ©2019