[4K电影] 花心隔代传 / Bangarraju (2022) 4K高清版本下载

[复制链接]

2163

主题

2306

帖子

1万

积分

超级版主

Rank: 8Rank: 8

积分
16861
 楼主| 发表于 2022-6-25 10:16:25 | 显示全部楼层 |阅读模式
本帖最后由 最爱4K哟 于 2022-6-25 14:46 编辑

QQ图片20220625095931_副本.png

◎译  名 花心隔代传
◎片  名 Bangarraju
◎年  代 2022
◎产  地 印度
◎类  别 剧情
◎语  言 泰卢固语
◎上映日期 2022-01-14(印度)
◎IMDb评分 5.8/10 from 1767 users
◎IMDb链接 https://www.imdb.com/title/tt15078854/
◎豆瓣评分 0/10 from 0 users
◎豆瓣链接 https://movie.douban.com/subject/35777299/
◎主  演 纳嘎朱纳·阿克肯尼 Nagarjuna Akkineni
       那伽·柴坦尼亚·阿吉奈尼 Naga Chaitanya Akkineni
       拉姆亚·克里希南 Ramya Krishnan
       克里西·谢蒂 Krithi Shetty
       布拉玛吉 Brahmaji


◎简  介


 班加拉朱和蒂亚巴马来安顿他们孙子奇娜·班加拉朱的生活,并拯救寺庙的宝藏。
Video
ID                             : 1
Format                         : HEVC
Format/Info                    : High Efficiency Video Coding
Format profile                 : Main 10@L5.1@Main
Codec ID                       : V_MPEGH/ISO/HEVC
Duration                       : 2 h 31 min
Bit rate                       : 7 775 kb/s
Width                          : 3 840 pixels
Height                         : 2 160 pixels
Display aspect ratio           : 16:9
Frame rate mode                : Constant
Frame rate                     : 25.000 FPS
Color space                    : YUV
Chroma subsampling             : 4:2:0
Bit depth                      : 10 bits
Bits/(Pixel*Frame)             : 0.037
Stream size                    : 8.21 GiB (95%)
Title                          : themoviesboss
Default                        : Yes
Forced                         : No
Color range                    : Full
Color primaries                : BT.709
Transfer characteristics       : BT.709
Matrix coefficients            : BT.709

Audio #1
ID                             : 2
Format                         : AAC LC
Format/Info                    : Advanced Audio Codec Low Complexity
Codec ID                       : A_AAC-2
Duration                       : 2 h 30 min
Bit rate                       : 192 kb/s
Channel(s)                     : 2 channels
Channel layout                 : L R
Sampling rate                  : 48.0 kHz
Frame rate                     : 46.875 FPS (1024 SPF)
Compression mode               : Lossy
Stream size                    : 207 MiB (2%)
Title                          : themoviesboss
Language                       : Hindi
Default                        : Yes
Forced                         : No

Audio #2
ID                             : 3
Format                         : E-AC-3
Format/Info                    : Enhanced AC-3
Commercial name                : Dolby Digital Plus
Codec ID                       : A_EAC3
Duration                       : 2 h 31 min
Bit rate mode                  : Constant
Bit rate                       : 192 kb/s
Channel(s)                     : 6 channels
Channel layout                 : L R C LFE Ls Rs
Sampling rate                  : 48.0 kHz
Frame rate                     : 31.250 FPS (1536 SPF)
Compression mode               : Lossy
Stream size                    : 208 MiB (2%)
Title                          : themoviesboss
Language                       : Telugu
Service kind                   : Complete Main
Default                        : No
Forced                         : No

Text
ID                             : 4
Format                         : UTF-8
Codec ID                       : S_TEXT/UTF8
Codec ID/Info                  : UTF-8 Plain Text
Duration                       : 2 h 28 min
Bit rate                       : 75 b/s
Count of elements              : 2447
Stream size                    : 81.8 KiB (0%)
Title                          : themoviesboss
Language                       : English
Default                        : No
Forced                         : No

资源速度为零或资源敏感被和谐时,推荐使用qBittorrent等下载软件,有条件的推荐115更好的下载软件!

下载地址:


游客,如果您要查看本帖隐藏内容请回复




上一篇:王者之路 [简繁中字] Rise (2022) 4K高清版本下载
下一篇:特雷弗:音乐剧 [简繁粤中字] (2022) 4K高清版本下载
回复

使用道具 举报

3

主题

1402

帖子

4048

积分

4K家园VIP

Rank: 9Rank: 9Rank: 9

积分
4048
发表于 2022-6-25 10:16:29 | 显示全部楼层
顶起出售广告位
回复 支持 反对

使用道具 举报

51

主题

1411

帖子

4065

积分

4K家园VIP

Rank: 9Rank: 9Rank: 9

积分
4065
发表于 2022-6-25 11:23:53 | 显示全部楼层
看着好像不错
回复 支持 反对

使用道具 举报

1

主题

1305

帖子

3939

积分

4K家园VIP

Rank: 9Rank: 9Rank: 9

积分
3939
发表于 2022-6-25 13:04:19 | 显示全部楼层
边撸边过
回复 支持 反对

使用道具 举报

5

主题

1377

帖子

4157

积分

4K家园VIP

Rank: 9Rank: 9Rank: 9

积分
4157
发表于 2022-6-25 13:34:13 | 显示全部楼层
围观 围观 沙发在哪里!!!
回复 支持 反对

使用道具 举报

38

主题

1494

帖子

4300

积分

4K家园VIP

Rank: 9Rank: 9Rank: 9

积分
4300
发表于 2022-6-25 13:54:13 | 显示全部楼层
好,很好,非常好!
回复 支持 反对

使用道具 举报

2163

主题

2306

帖子

1万

积分

超级版主

Rank: 8Rank: 8

积分
16861
 楼主| 发表于 2022-6-25 14:46:58 | 显示全部楼层
Bangarraju.2022.2160p.UNCUT.ZEE5.WEB-DL.Hindi.AAC2.0.Telugu.DDP5.1.H.264-themovi.jpg Bangarraju.2022.2160p.UNCUT.ZEE5.WEB-DL.Hindi.AAC2.0.Telugu.DDP5.1.H.264-themovi.jpg Bangarraju.2022.2160p.UNCUT.ZEE5.WEB-DL.Hindi.AAC2.0.Telugu.DDP5.1.H.264-themovi.jpg Bangarraju.2022.2160p.UNCUT.ZEE5.WEB-DL.Hindi.AAC2.0.Telugu.DDP5.1.H.264-themovi.jpg Bangarraju.2022.2160p.UNCUT.ZEE5.WEB-DL.Hindi.AAC2.0.Telugu.DDP5.1.H.264-themovi.jpg Bangarraju.2022.2160p.UNCUT.ZEE5.WEB-DL.Hindi.AAC2.0.Telugu.DDP5.1.H.264-themovi.jpg
回复 支持 反对

使用道具 举报

您需要登录后才可以回帖 登录 | 立即注册

本版积分规则

精彩图文
Archiver|手机版|TAG|Sitemap|新帖|专题|联系我们:邮箱: 4kjia.com@gmail.com   

4k家园   ©2019