克洛伊的完美生活 [简繁中字] (2022) 第一季/全6集/4K高清下载

[复制链接]

194

主题

217

帖子

2109

积分

版主

Rank: 7Rank: 7Rank: 7

积分
2109
 楼主| 发表于 2022-6-26 15:17:38 | 显示全部楼层 |阅读模式
p2858709861_副本.jpg

◎译  名 克洛伊的完美生活/克洛伊
◎片  名 Chloe
◎年  代 2022
◎产  地 英国
◎类  别 剧情/悬疑/惊悚
◎语  言 英语
◎上映日期 2022-02-06(英国)
◎IMDb评分  6.4/10 from 1914 users
◎IMDb链接  https://www.imdb.com/title/tt14412362/
◎豆瓣评分 7.4/10 from 627 users
◎豆瓣链接 https://douban.com/subject/35439846/
◎集  数 6
◎片  长 60分钟
◎导  演 艾丽斯·西布赖特 Alice Seabright / 阿曼达·博伊尔 Amanda Boyle
◎编  剧 艾丽斯·西布赖特 Alice Seabright / 萨姆·巴伦 Sam Baron
◎主  演 艾琳·多尔蒂 Erin Doherty
       波佩·吉尔伯特 Poppy Gilbert
       杰克·法辛 Jack Farthing
       比利·豪尔 Billy Howle
       布兰登·迈克尔·霍尔 Brandon Micheal Hall
       皮帕·贝内特-华纳 Pippa Bennett-Warner
       丽莎·帕弗瑞 Lisa Palfrey
       埃斯特拉·丹尼尔斯 Estella Daniels
       多米尼克·博伊尔 Dominic Boyle
       萨曼莎·E·亨特 Samantha E. Hunt
       丹尼尔·贝茨 Daniel Betts


◎简  介

  故事讲述Becky Green在社交平台上关注Chloe Fairbourne有一段时间了,看着对方分享各种完美的生活照片。Chloe有着迷人的生活,一个爱她的丈夫,以及一群颇有成就、随叫随到的朋友。这样一种与自己境遇形成鲜明对比的生活,让Becky总是忍不住要去关注。

  Becky的母亲患有早发性痴呆症,她一直以来都在布里斯托尔郊区海边的小公寓里照顾母亲。当Chloe突然去世,Becky伪造了一个新身份,以此潜入Chloe密友那令人羡慕的生活之中,试图查明白Chloe身上到底发生了什么。

Video
ID : 1
Format : HEVC
Format/Info : High Efficiency Video Coding
Format profile : Main 10@L5@Main
HDR format : SMPTE ST 2094 App 4, Version 1, HDR10+ Profile B compatible
Codec ID : V_MPEGH/ISO/HEVC
Duration : 57 min 24 s
Bit rate : 14.5 Mb/s
Width : 3 840 pixels
Height : 2 160 pixels
Display aspect ratio : 16:9
Frame rate mode : Constant
Frame rate : 25.000 FPS
Color space : YUV
Chroma subsampling : 4:2:0
Bit depth : 10 bits
Bits/(Pixel*Frame) : 0.070
Stream size : 5.83 GiB (96%)
Default : Yes
Forced : No
Color range : Limited
Color primaries : BT.2020
Transfer characteristics : PQ
Matrix coefficients : BT.2020 non-constant
Mastering display color primaries : Display P3
Mastering display luminance : min: 0.0001 cd/m2, max: 1000 cd/m2
Maximum Content Light Level : 696 cd/m2
Maximum Frame-Average Light Level : 126 cd/m2

Audio
ID : 2
Format : E-AC-3
Format/Info : Enhanced AC-3
Commercial name : Dolby Digital Plus
Codec ID : A_EAC3
Duration : 57 min 24 s
Bit rate mode : Constant
Bit rate : 640 kb/s
Channel(s) : 6 channels
Channel layout : L R C LFE Ls Rs
Sampling rate : 48.0 kHz
Frame rate : 31.250 FPS (1536 SPF)
Compression mode : Lossy
Stream size : 263 MiB (4%)
Title : English
Language : English
Service kind : Complete Main
Default : No
Forced : No

Text #1
ID : 3
Format : UTF-8
Codec ID : S_TEXT/UTF8
Codec ID/Info : UTF-8 Plain Text
Duration : 55 min 29 s
Bit rate : 37 b/s
Count of elements : 498
Stream size : 15.2 KiB (0%)
Title : German
Language : German
Default : No
Forced : No

Text #2
ID : 4
Format : UTF-8
Codec ID : S_TEXT/UTF8
Codec ID/Info : UTF-8 Plain Text
Duration : 55 min 29 s
Bit rate : 36 b/s
Count of elements : 426
Stream size : 14.9 KiB (0%)
Title : Danish
Language : Danish
Default : No
Forced : No

Text #3
ID : 5
Format : UTF-8
Codec ID : S_TEXT/UTF8
Codec ID/Info : UTF-8 Plain Text
Duration : 54 min 21 s
Bit rate : 47 b/s
Count of elements : 635
Stream size : 18.9 KiB (0%)
Title : English [SDH]
Language : English
Default : No
Forced : No

Text #4
ID : 6
Format : UTF-8
Codec ID : S_TEXT/UTF8
Codec ID/Info : UTF-8 Plain Text
Duration : 51 min 31 s
Bit rate : 42 b/s
Count of elements : 522
Stream size : 15.9 KiB (0%)
Title : English
Language : English
Default : No
Forced : No

Text #5
ID : 7
Format : UTF-8
Codec ID : S_TEXT/UTF8
Codec ID/Info : UTF-8 Plain Text
Duration : 53 min 18 s
Bit rate : 101 b/s
Count of elements : 548
Stream size : 39.6 KiB (0%)
Title : Thai
Language : Thai
Default : No
Forced : No

Text #6
ID : 8
Format : UTF-8
Codec ID : S_TEXT/UTF8
Codec ID/Info : UTF-8 Plain Text
Duration : 55 min 29 s
Bit rate : 35 b/s
Count of elements : 477
Stream size : 14.3 KiB (0%)
Title : Romanian
Language : Romanian
Default : No
Forced : No

Text #7
ID : 9
Format : UTF-8
Codec ID : S_TEXT/UTF8
Codec ID/Info : UTF-8 Plain Text
Duration : 55 min 29 s
Bit rate : 37 b/s
Count of elements : 539
Stream size : 15.2 KiB (0%)
Title : Malay
Language : Malay
Default : No
Forced : No

Text #8
ID : 10
Format : UTF-8
Codec ID : S_TEXT/UTF8
Codec ID/Info : UTF-8 Plain Text
Duration : 55 min 29 s
Bit rate : 46 b/s
Count of elements : 537
Stream size : 18.7 KiB (0%)
Title : Filipino
Language : fil
Default : No
Forced : No

Text #9
ID : 11
Format : UTF-8
Codec ID : S_TEXT/UTF8
Codec ID/Info : UTF-8 Plain Text
Duration : 55 min 29 s
Bit rate : 40 b/s
Count of elements : 541
Stream size : 16.5 KiB (0%)
Title : Turkish
Language : Turkish
Default : No
Forced : No

Text #10
ID : 12
Format : UTF-8
Codec ID : S_TEXT/UTF8
Codec ID/Info : UTF-8 Plain Text
Duration : 56 min 1 s
Bit rate : 48 b/s
Count of elements : 541
Stream size : 19.8 KiB (0%)
Title : Vietnamese
Language : Vietnamese
Default : No
Forced : No

Text #11
ID : 13
Format : UTF-8
Codec ID : S_TEXT/UTF8
Codec ID/Info : UTF-8 Plain Text
Duration : 55 min 29 s
Bit rate : 34 b/s
Count of elements : 392
Stream size : 13.9 KiB (0%)
Title : Norwegian (Bokmål)
Language : Norwegian Bokmal
Default : No
Forced : No

Text #12
ID : 14
Format : UTF-8
Codec ID : S_TEXT/UTF8
Codec ID/Info : UTF-8 Plain Text
Duration : 55 min 29 s
Bit rate : 38 b/s
Count of elements : 538
Stream size : 15.5 KiB (0%)
Title : Portuguese
Language : Portuguese
Default : No
Forced : No

Text #13
ID : 15
Format : UTF-8
Codec ID : S_TEXT/UTF8
Codec ID/Info : UTF-8 Plain Text
Duration : 56 min 1 s
Bit rate : 118 b/s
Count of elements : 572
Stream size : 48.8 KiB (0%)
Title : Kannada (India)
Language : Kannada
Default : No
Forced : No

Text #14
ID : 16
Format : UTF-8
Codec ID : S_TEXT/UTF8
Codec ID/Info : UTF-8 Plain Text
Duration : 55 min 29 s
Bit rate : 35 b/s
Count of elements : 540
Stream size : 14.2 KiB (0%)
Title : Indonesian
Language : Indonesian
Default : No
Forced : No

Text #15
ID : 17
Format : UTF-8
Codec ID : S_TEXT/UTF8
Codec ID/Info : UTF-8 Plain Text
Duration : 55 min 29 s
Bit rate : 38 b/s
Count of elements : 535
Stream size : 15.6 KiB (0%)
Title : French
Language : French
Default : No
Forced : No

Text #16
ID : 18
Format : UTF-8
Codec ID : S_TEXT/UTF8
Codec ID/Info : UTF-8 Plain Text
Duration : 56 min 1 s
Bit rate : 31 b/s
Count of elements : 556
Stream size : 13.1 KiB (0%)
Title : Japanese
Language : Japanese
Default : No
Forced : No

Text #17
ID : 19
Format : UTF-8
Codec ID : S_TEXT/UTF8
Codec ID/Info : UTF-8 Plain Text
Duration : 55 min 29 s
Bit rate : 36 b/s
Count of elements : 535
Stream size : 14.7 KiB (0%)
Title : Polish
Language : Polish
Default : No
Forced : No

Text #18
ID : 20
Format : UTF-8
Codec ID : S_TEXT/UTF8
Codec ID/Info : UTF-8 Plain Text
Duration : 55 min 29 s
Bit rate : 35 b/s
Count of elements : 531
Stream size : 14.6 KiB (0%)
Title : Spanish
Language : Spanish
Default : No
Forced : No

Text #19
ID : 21
Format : UTF-8
Codec ID : S_TEXT/UTF8
Codec ID/Info : UTF-8 Plain Text
Duration : 56 min 1 s
Bit rate : 128 b/s
Count of elements : 549
Stream size : 52.7 KiB (0%)
Title : Malayalam
Language : Malayalam
Default : No
Forced : No

Text #20
ID : 22
Format : UTF-8
Codec ID : S_TEXT/UTF8
Codec ID/Info : UTF-8 Plain Text
Duration : 55 min 29 s
Bit rate : 33 b/s
Count of elements : 505
Stream size : 13.5 KiB (0%)
Title : Dutch
Language : Dutch
Default : No
Forced : No

Text #21
ID : 23
Format : UTF-8
Codec ID : S_TEXT/UTF8
Codec ID/Info : UTF-8 Plain Text
Duration : 55 min 29 s
Bit rate : 36 b/s
Count of elements : 528
Stream size : 14.9 KiB (0%)
Title : Finnish
Language : Finnish
Default : No
Forced : No

Text #22
ID : 24
Format : UTF-8
Codec ID : S_TEXT/UTF8
Codec ID/Info : UTF-8 Plain Text
Duration : 56 min 1 s
Bit rate : 72 b/s
Count of elements : 548
Stream size : 29.7 KiB (0%)
Title : Arabic
Language : Arabic
Default : No
Forced : No

Text #23
ID : 25
Format : UTF-8
Codec ID : S_TEXT/UTF8
Codec ID/Info : UTF-8 Plain Text
Duration : 55 min 29 s
Bit rate : 37 b/s
Count of elements : 532
Stream size : 15.3 KiB (0%)
Title : Castilian
Language : Spanish
Default : No
Forced : No

Text #24
ID : 26
Format : UTF-8
Codec ID : S_TEXT/UTF8
Codec ID/Info : UTF-8 Plain Text
Duration : 56 min 1 s
Bit rate : 39 b/s
Count of elements : 549
Stream size : 16.3 KiB (0%)
Title : Korean
Language : Korean
Default : No
Forced : No

Text #25
ID : 27
Format : UTF-8
Codec ID : S_TEXT/UTF8
Codec ID/Info : UTF-8 Plain Text
Duration : 52 min 45 s
Bit rate : 36 b/s
Count of elements : 526
Stream size : 14.2 KiB (0%)
Title : Brazilian Portuguese
Language : Portuguese
Default : No
Forced : No

Text #26
ID : 28
Format : UTF-8
Codec ID : S_TEXT/UTF8
Codec ID/Info : UTF-8 Plain Text
Duration : 56 min 1 s
Bit rate : 57 b/s
Count of elements : 549
Stream size : 23.8 KiB (0%)
Title : Russian
Language : Russian
Default : No
Forced : No

Text #27
ID : 29
Format : UTF-8
Codec ID : S_TEXT/UTF8
Codec ID/Info : UTF-8 Plain Text
Duration : 56 min 1 s
Bit rate : 37 b/s
Count of elements : 549
Stream size : 15.2 KiB (0%)
Title : 中午(简体)
Language : 中文
Default : No
Forced : No


Text #28
ID : 30
Format : UTF-8
Codec ID : S_TEXT/UTF8
Codec ID/Info : UTF-8 Plain Text
Duration : 56 min 1 s
Bit rate : 61 b/s
Count of elements : 549
Stream size : 25.4 KiB (0%)
Title : Hebrew
Language : Hebrew
Default : No
Forced : No

Text #29
ID : 31
Format : UTF-8
Codec ID : S_TEXT/UTF8
Codec ID/Info : UTF-8 Plain Text
Duration : 56 min 1 s
Bit rate : 104 b/s
Count of elements : 549
Stream size : 42.9 KiB (0%)
Title : Hindi
Language : Hindi
Default : No
Forced : No

Text #30
ID : 32
Format : UTF-8
Codec ID : S_TEXT/UTF8
Codec ID/Info : UTF-8 Plain Text
Duration : 56 min 1 s
Bit rate : 36 b/s
Count of elements : 527
Stream size : 14.8 KiB (0%)
Title : Italian
Language : Italian
Default : No
Forced : No

Text #31
ID : 33
Format : UTF-8
Codec ID : S_TEXT/UTF8
Codec ID/Info : UTF-8 Plain Text
Duration : 56 min 1 s
Bit rate : 37 b/s
Count of elements : 547
Stream size : 15.5 KiB (0%)
Title : 中文(简体)
Language : 中文
Default : No
Forced : No


Text #32
ID : 34
Format : UTF-8
Codec ID : S_TEXT/UTF8
Codec ID/Info : UTF-8 Plain Text
Duration : 55 min 29 s
Bit rate : 37 b/s
Count of elements : 525
Stream size : 15.3 KiB (0%)
Title : Hungarian
Language : Hungarian
Default : No
Forced : No

Text #33
ID : 35
Format : UTF-8
Codec ID : S_TEXT/UTF8
Codec ID/Info : UTF-8 Plain Text
Duration : 56 min 1 s
Bit rate : 123 b/s
Count of elements : 549
Stream size : 50.5 KiB (0%)
Title : Telugu
Language : Telugu
Default : No
Forced : No

Text #34
ID : 36
Format : UTF-8
Codec ID : S_TEXT/UTF8
Codec ID/Info : UTF-8 Plain Text
Duration : 55 min 29 s
Bit rate : 38 b/s
Count of elements : 504
Stream size : 15.5 KiB (0%)
Title : Swedish
Language : Swedish
Default : No
Forced : No

Text #35
ID : 37
Format : UTF-8
Codec ID : S_TEXT/UTF8
Codec ID/Info : UTF-8 Plain Text
Duration : 56 min 1 s
Bit rate : 108 b/s
Count of elements : 549
Stream size : 44.5 KiB (0%)
Title : Tamil
Language : Tamil
Default : No
Forced : No

Text #36
ID : 38
Format : UTF-8
Codec ID : S_TEXT/UTF8
Codec ID/Info : UTF-8 Plain Text
Duration : 55 min 29 s
Bit rate : 35 b/s
Count of elements : 541
Stream size : 14.4 KiB (0%)
Title : Czech
Language : Czech
Default : No
Forced : No

Menu
00:00:00.000 : Amazon Original
00:00:05.000 : Scene 2
00:00:31.000 : Title Sequence
00:00:34.000 : Scene 4
00:02:19.000 : Scene 5
00:02:44.000 : Scene 6
00:03:36.000 : Scene 7
00:05:15.000 : Scene 8
00:05:18.000 : Scene 9
00:06:28.000 : Scene 10
00:08:22.000 : Scene 11
00:08:34.000 : Scene 12
00:09:11.000 : Scene 13
00:12:07.000 : Scene 14
00:12:33.000 : Scene 15
00:13:07.000 : Scene 16
00:13:37.000 : Scene 17
00:13:49.000 : Scene 18
00:14:44.000 : Scene 19
00:15:16.000 : Scene 20
00:17:26.000 : Scene 21
00:18:52.000 : Scene 22
00:20:05.000 : Scene 23
00:22:14.000 : Scene 24
00:22:19.000 : Scene 25
00:24:09.000 : Scene 26
00:25:18.000 : Scene 27
00:27:54.000 : Scene 28
00:33:08.000 : Scene 29
00:35:21.000 : Scene 30
00:36:35.000 : Scene 31
00:38:31.000 : Scene 32
00:39:29.000 : Scene 33
00:42:03.000 : Scene 34
00:43:07.000 : Scene 35
00:43:26.000 : Scene 36
00:43:46.000 : Scene 37
00:44:04.000 : Scene 38
00:44:32.000 : Scene 39
00:44:51.000 : Scene 40
00:50:06.000 : Scene 41
00:54:18.000 : Scene 42
00:55:36.000 : End Credits


下载地址:

游客,如果您要查看本帖隐藏内容请回复





上一篇:欧比旺 [简繁粤中字] (2022) 第一季/全6集/ 4K高清版本下载
下一篇:此时此刻 [简繁粤中字] (2022) 第一季/全8集/4K高清版本下载
回复

使用道具 举报

2

主题

1578

帖子

4306

积分

4K家园VIP

Rank: 9Rank: 9Rank: 9

积分
4306
发表于 2022-6-26 15:17:56 | 显示全部楼层
楼猪V5啊
回复 支持 反对

使用道具 举报

40

主题

1513

帖子

4351

积分

4K家园VIP

Rank: 9Rank: 9Rank: 9

积分
4351
发表于 2022-6-26 16:24:01 | 显示全部楼层
发发呆,回回帖,工作结束~
回复 支持 反对

使用道具 举报

2

主题

1407

帖子

4073

积分

4K家园VIP

Rank: 9Rank: 9Rank: 9

积分
4073
发表于 2022-6-26 16:36:22 | 显示全部楼层
高手云集 果断围观
回复 支持 反对

使用道具 举报

1

主题

1756

帖子

4876

积分

4K家园VIP

Rank: 9Rank: 9Rank: 9

积分
4876
发表于 2022-6-26 18:15:29 | 显示全部楼层
very good
回复 支持 反对

使用道具 举报

1

主题

1735

帖子

4815

积分

4K家园VIP

Rank: 9Rank: 9Rank: 9

积分
4815
发表于 2022-6-26 19:26:34 | 显示全部楼层
我只是路过,不发表意见
回复 支持 反对

使用道具 举报

0

主题

8337

帖子

1万

积分

4K家园VIP

Rank: 9Rank: 9Rank: 9

积分
19388
发表于 2022-6-29 08:11:55 | 显示全部楼层
太好啦&萬分感謝版主的無私發佈分享%
回复 支持 反对

使用道具 举报

0

主题

3

帖子

12

积分

新手上路

Rank: 1

积分
12
发表于 2022-6-30 09:49:56 来自手机 | 显示全部楼层
666666666666
回复 支持 反对

使用道具 举报

0

主题

40

帖子

139

积分

新手上路

Rank: 1

积分
139
发表于 2022-7-1 17:30:08 | 显示全部楼层
前来围观一下
回复 支持 反对

使用道具 举报

0

主题

40

帖子

139

积分

新手上路

Rank: 1

积分
139
发表于 2022-7-9 13:46:14 | 显示全部楼层
不太喜欢看
回复 支持 反对

使用道具 举报

您需要登录后才可以回帖 登录 | 立即注册

本版积分规则

精彩图文
Archiver|手机版|TAG|Sitemap|新帖|专题|联系我们:邮箱: 4kjia.com@gmail.com   

4k家园   ©2019