[4K电影] 欢乐野营两家人 / Family.Camp (2022) 4K高清版本下载

[复制链接]

2163

主题

2306

帖子

1万

积分

超级版主

Rank: 8Rank: 8

积分
16861
 楼主| 发表于 2022-6-28 15:59:22 | 显示全部楼层 |阅读模式
QQ图片20220628153531_副本.png

◎标  题 欢乐野营两家人
◎片  名 Family Camp
◎年  代 2022
◎产  地 美国
◎类  别 喜剧 / 家庭
◎语  言 英语
◎上映日期 2022-05-13(美国)
◎IMDb评分 5.5/10 from 401 users
◎IMDb链接 https://www.imdb.com/title/tt11535358/
◎豆瓣评分 0/10 from 0 users
◎豆瓣链接 https://movie.douban.com/subject/35900886/
◎片  长 111分钟
◎导  演 布莱恩·凯茨 Brian Cates
◎编  剧 布莱恩·凯茨 Brian Cates / 雷内·古特里奇 Rene Gutteridge
◎演  员 汤米·伍达德 Tommy Woodard
       埃迪·詹姆斯 Eddie James
       雷·艾琳·贝克 Leigh Allyn Baker
       吉吉·奥尔西洛 Gigi Orsillo
       西斯·凯利 Cece Kelly
       雅各布·M·韦德 Jacob M Wade
       埃利亚斯·凯穆尔 Elias Kemuel
       凯斯利·布莱洛克 Keslee Blalock
       马克·克里斯托弗·劳伦斯 Mark Christopher Lawrence
       罗伯特·阿马亚 Robert Amaya
       希瑟·兰德 Heather Land
       米凯·霍姆斯 Myke Holmes
       韦斯顿·弗鲁曼 Weston Vrooman
       布兰登·波特 Brandon Potter
       大卫·阿库夫 David Acuff
       布雷特·鲍尔 Brett Bower



◎简  介


  两个大相径庭的家庭,出于种种原因被迫一同野营,两个爸爸一边勉力维持家人间的团结,一边谋划争夺诱人的最终奖项。

Video
ID : 1
Format : HEVC
Format/Info : High Efficiency Video Coding
Format profile : Main 10@L5@High
Codec ID : V_MPEGH/ISO/HEVC
Duration : 1 h 51 min
Bit rate : 11.9 Mb/s
Width : 3 828 pixels
Height : 1 592 pixels
Display aspect ratio : 2.40:1
Frame rate mode : Constant
Frame rate : 23.976 FPS
Color space : YUV
Chroma subsampling : 4:2:0
Bit depth : 10 bits
Bits/(Pixel*Frame) : 0.081
Stream size : 9.25 GiB (97%)
Language : English
Default : Yes
Forced : No
Color range : Limited
Color primaries : BT.709
Transfer characteristics : BT.709
Matrix coefficients : BT.709

Audio
ID : 2
Format : AC-3
Format/Info : Audio Coding 3
Commercial name : Dolby Digital
Codec ID : A_AC3
Duration : 1 h 51 min
Bit rate mode : Constant
Bit rate : 384 kb/s
Channel(s) : 6 channels
Channel layout : L R C LFE Ls Rs
Sampling rate : 48.0 kHz
Frame rate : 31.250 FPS (1536 SPF)
Compression mode : Lossy
Stream size : 306 MiB (3%)
Language : English
Service kind : Complete Main
Default : Yes
Forced : No

Text #1
ID : 3
Format : UTF-8
Codec ID : S_TEXT/UTF8
Codec ID/Info : UTF-8 Plain Text
Duration : 1 h 51 min
Bit rate : 84 b/s
Count of elements : 2110
Stream size : 69.0 KiB (0%)
Title : SDH
Language : English
Default : No
Forced : No

Text #2
ID : 4
Format : UTF-8
Codec ID : S_TEXT/UTF8
Codec ID/Info : UTF-8 Plain Text
Duration : 1 h 50 min
Bit rate : 72 b/s
Count of elements : 1846
Stream size : 58.8 KiB (0%)
Language : English
Default : No
Forced : No

Menu
00:00:00.000 : Chapter 01
00:05:29.245 : Chapter 02
00:18:16.137 : Chapter 03
00:31:17.544 : Chapter 04
00:43:38.493 : Chapter 05
00:57:23.902 : Chapter 06
01:09:43.975 : Chapter 07
01:22:05.925 : Chapter 08
01:33:07.504 : Chapter 09
01:43:05.894 : Chapter 10


资源速度为零或资源敏感被和谐时,推荐使用qBittorrent等下载软件,有条件的推荐115更好的下载软件!

下载地址:


游客,如果您要查看本帖隐藏内容请回复






上一篇:恐怖之地 / Where the Scary Things Are (2022) 4K高清版本下载
下一篇:暗夜凶光 / Dark.Light (2022) 4K高清版本下载
回复

使用道具 举报

40

主题

1513

帖子

4351

积分

4K家园VIP

Rank: 9Rank: 9Rank: 9

积分
4351
发表于 2022-6-28 15:59:25 | 显示全部楼层
LZ敢整点更有创意的不?兄弟们等着围观捏~
回复 支持 反对

使用道具 举报

0

主题

7

帖子

20

积分

新手上路

Rank: 1

积分
20
发表于 2022-6-28 23:17:59 | 显示全部楼层
先记录。有空间再下
回复 支持 反对

使用道具 举报

1

主题

1645

帖子

4557

积分

4K家园VIP

Rank: 9Rank: 9Rank: 9

积分
4557
发表于 2022-6-29 00:42:09 来自手机 | 显示全部楼层
路过 帮顶 嘿嘿
回复 支持 反对

使用道具 举报

50

主题

1465

帖子

4205

积分

4K家园VIP

Rank: 9Rank: 9Rank: 9

积分
4205
发表于 2022-6-30 00:26:55 | 显示全部楼层
我擦!我要沙发!
回复 支持 反对

使用道具 举报

0

主题

7

帖子

57

积分

新手上路

Rank: 1

积分
57
发表于 2022-6-30 13:46:33 | 显示全部楼层

强烈支持,不顶不行啊!
回复 支持 反对

使用道具 举报

0

主题

1368

帖子

4118

积分

4K家园VIP

Rank: 9Rank: 9Rank: 9

积分
4118
发表于 2022-7-2 05:27:06 | 显示全部楼层
发发呆,回回帖,工作结束~
回复 支持 反对

使用道具 举报

0

主题

1732

帖子

4800

积分

4K家园VIP

Rank: 9Rank: 9Rank: 9

积分
4800
发表于 2022-7-2 05:40:53 | 显示全部楼层
我只是路过,不发表意见
回复 支持 反对

使用道具 举报

您需要登录后才可以回帖 登录 | 立即注册

本版积分规则

精彩图文
Archiver|手机版|TAG|Sitemap|新帖|专题|联系我们:邮箱: 4kjia.com@gmail.com   

4k家园   ©2019