[4K电影] 暗夜凶光 / Dark.Light (2022) 4K高清版本下载

[复制链接]

2163

主题

2306

帖子

1万

积分

超级版主

Rank: 8Rank: 8

积分
16861
 楼主| 发表于 2022-6-28 16:32:32 | 显示全部楼层 |阅读模式
本帖最后由 最爱4K哟 于 2022-6-28 16:36 编辑

QQ图片20220628160935_副本.png

◎译  名 暗夜凶光
◎片  名 Dark.Light
◎年  代 2022
◎产  地 美国
◎类  别 犯罪 / 剧情 / 惊悚
◎语  言 英语
◎上映日期 2021 年 10 月 29 日(美国)
◎IMDb评分 0/10 from 0 users
◎IMDb链接 https://www.imdb.com/title/tt15035760/
◎片  长 91分钟
◎导  演 达米安·查帕 Damian Chapa
◎编  剧 达米安·查帕 Damian Chapa
◎主  演 达米安·查帕 Damian Chapa
                  卢克·奥布莱恩 Luke O'Brien
                  加布里埃尔·奥布莱恩·查帕 Gabriel O'Brien Chapa
                  马克·麦克雷里 Mark McCreary
                  娜塔莉亚·奥尔特加 Natalia Ortega
                  埃斯特法尼亚·维拉埃佩萨 Estefania Villaespesa
                  阿丽亚娜·安伯·海德 Ariaana Amber Hyder
                  阿莱​​西娅·巴尔塔赫 Alesia Baltach
                  朱莉娅·博格斯 Julia Bogues,
                  汤姆·博格斯 Tom Bogues
                  理查德·卡灵顿 Richard Carrington
                  玛丽·路易斯·克拉林博尔德 Marie Louise Claringbould
                  凯莉·戴文 Kaylie Devine
                  玛丽安娜·迪瓦恩 Mariana Devine
                  安德鲁·福布斯 Andrew Forbe
                  亨利·霍根 Hennry Hogan
                  伊琳娜·赫里斯托娃·扬科娃 Irina Hristova Yonkova
                  蒂姆·赫尔斯 Tim Hulse


◎简  介

         一位来自纽约、曾在洛杉矶超自然犯罪部门工作的古怪国际刑警侦探发现自己正在调查爱尔兰的一系列神秘谋杀案。一个非常不安但美丽的女人被指责为谋杀。
Video
ID : 1
Format : HEVC
Format/Info : High Efficiency Video Coding
Format profile : Main 10@L5@High
Codec ID : V_MPEGH/ISO/HEVC
Duration : 1 h 31 min
Bit rate : 11.7 Mb/s
Width : 3 840 pixels
Height : 2 160 pixels
Display aspect ratio : 16:9
Frame rate mode : Constant
Frame rate : 23.976 FPS
Color space : YUV
Chroma subsampling : 4:2:0
Bit depth : 10 bits
Bits/(Pixel*Frame) : 0.059
Stream size : 7.48 GiB (99%)
Language : English
Default : Yes
Forced : No
Color range : Limited
Color primaries : BT.709
Transfer characteristics : BT.709
Matrix coefficients : BT.709

Audio
ID : 2
Format : AAC LC
Format/Info : Advanced Audio Codec Low Complexity
Codec ID : A_AAC-2
Duration : 1 h 31 min
Bit rate : 125 kb/s
Channel(s) : 2 channels
Channel layout : L R
Sampling rate : 48.0 kHz
Frame rate : 46.875 FPS (1024 SPF)
Compression mode : Lossy
Stream size : 81.8 MiB (1%)
Language : English
Default : Yes
Forced : No

Text #1
ID : 3
Format : UTF-8
Codec ID : S_TEXT/UTF8
Codec ID/Info : UTF-8 Plain Text
Duration : 1 h 27 min
Bit rate : 81 b/s
Count of elements : 1743
Stream size : 52.4 KiB (0%)
Title : SDH
Language : English
Default : No
Forced : No

Text #2
ID : 4
Format : UTF-8
Codec ID : S_TEXT/UTF8
Codec ID/Info : UTF-8 Plain Text
Duration : 1 h 26 min
Bit rate : 78 b/s
Count of elements : 1651
Stream size : 49.8 KiB (0%)
Language : English
Default : No
Forced : No

Menu
00:00:00.000 : Chapter 01
00:31:17.000 : Chapter 02
00:59:27.000 : Chapter 03

资源速度为零或资源敏感被和谐时,推荐使用qBittorrent等下载软件,有条件的推荐115更好的下载软件!

下载地址:


游客,如果您要查看本帖隐藏内容请回复





上一篇:欢乐野营两家人 / Family.Camp (2022) 4K高清版本下载
下一篇:一卢比战记 / Sarkaru Vaari Paata (2022) 4K高清版本下载
回复

使用道具 举报

3

主题

1342

帖子

4052

积分

4K家园VIP

Rank: 9Rank: 9Rank: 9

积分
4052
发表于 2022-6-28 16:32:37 | 显示全部楼层
为毛老子总也抢不到沙发?!!
回复 支持 反对

使用道具 举报

0

主题

7

帖子

20

积分

新手上路

Rank: 1

积分
20
发表于 2022-6-28 22:12:34 | 显示全部楼层
现在还用这个手段下载的老网站
回复 支持 反对

使用道具 举报

44

主题

1531

帖子

4411

积分

4K家园VIP

Rank: 9Rank: 9Rank: 9

积分
4411
发表于 2022-6-29 18:57:07 | 显示全部楼层
楼下的接上
回复 支持 反对

使用道具 举报

0

主题

11

帖子

294

积分

新手上路

Rank: 1

积分
294
发表于 2022-6-29 20:45:57 | 显示全部楼层
回复

使用道具 举报

2

主题

1438

帖子

4152

积分

中级会员

Rank: 4

积分
4152
发表于 2022-7-2 12:30:34 | 显示全部楼层
顶顶更健康
回复 支持 反对

使用道具 举报

6

主题

1655

帖子

4553

积分

中级会员

Rank: 4

积分
4553
发表于 2022-7-3 10:47:05 来自手机 | 显示全部楼层
4K版的应该更清晰吧
回复 支持 反对

使用道具 举报

0

主题

3

帖子

15

积分

新手上路

Rank: 1

积分
15
发表于 2022-7-3 14:21:49 来自手机 | 显示全部楼层
楼下的接上
回复 支持 反对

使用道具 举报

43

主题

1511

帖子

4341

积分

4K家园VIP

Rank: 9Rank: 9Rank: 9

积分
4341
发表于 2022-7-5 21:08:33 | 显示全部楼层
前排支持下
回复 支持 反对

使用道具 举报

您需要登录后才可以回帖 登录 | 立即注册

本版积分规则

精彩图文
Archiver|手机版|TAG|Sitemap|新帖|专题|联系我们:邮箱: 4kjia.com@gmail.com   

4k家园   ©2019