[4K电影] 报丧女妖 / Code.Name.Banshee (2022) 4K高清版本下载

[复制链接]

2163

主题

2306

帖子

1万

积分

超级版主

Rank: 8Rank: 8

积分
16861
 楼主| 发表于 2022-7-1 18:27:06 | 显示全部楼层 |阅读模式

QQ图片20220701180644_副本.png

◎标  题 报丧女妖
◎片  名 Banshee
◎年  代 2022
◎产  地 美国
◎类  别 剧情 / 动作 / 惊悚
◎语  言 英语
◎上映日期 2022-07-01(美国)
◎IMDb评分 6.8/10 from 14 users
◎IMDb链接 https://www.imdb.com/title/tt15438542/
◎豆瓣评分 0/10 from 0 users
◎豆瓣链接 https://movie.douban.com/subject/35760353/
◎导  演 强·基耶斯 Jon Keeyes
◎编  剧 马修·罗杰斯 Matthew Rogers
◎演  员 安东尼奥·班德拉斯 Antonio Banderas
       杰米·金 Jaime King
       汤米·弗拉纳根 Tommy Flanagan
       凯特·希金斯 Kate Higgins
       韦恩·派尔 Wayne Pyle
       亚历山大·维舍尔鲍默 Aleksander Vayshelboym



◎简  介


  这是一个关于复仇和家庭的复杂故事,讲述的是自由职业杀手女妖被杀死父亲的雇佣兵伏击的故事。

Video
ID : 1
Format : HEVC
Format/Info : High Efficiency Video Coding
Format profile : Main 10@L5@High
Codec ID : V_MPEGH/ISO/HEVC
Duration : 1 h 32 min
Bit rate : 12.0 Mb/s
Width : 3 832 pixels
Height : 1 596 pixels
Display aspect ratio : 2.40:1
Frame rate mode : Constant
Frame rate : 23.976 FPS
Color space : YUV
Chroma subsampling : 4:2:0
Bit depth : 10 bits
Bits/(Pixel*Frame) : 0.082
Stream size : 7.76 GiB (97%)
Language : English
Default : Yes
Forced : No
Color range : Limited
Color primaries : BT.709
Transfer characteristics : BT.709
Matrix coefficients : BT.709

Audio
ID : 2
Format : AC-3
Format/Info : Audio Coding 3
Commercial name : Dolby Digital
Codec ID : A_AC3
Duration : 1 h 32 min
Bit rate mode : Constant
Bit rate : 384 kb/s
Channel(s) : 6 channels
Channel layout : L R C LFE Ls Rs
Sampling rate : 48.0 kHz
Frame rate : 31.250 FPS (1536 SPF)
Compression mode : Lossy
Stream size : 255 MiB (3%)
Language : English
Service kind : Complete Main
Default : Yes
Forced : No

Text #1
ID : 3
Format : UTF-8
Codec ID : S_TEXT/UTF8
Codec ID/Info : UTF-8 Plain Text
Duration : 1 h 32 min
Bit rate : 52 b/s
Count of elements : 1440
Stream size : 35.4 KiB (0%)
Title : SDH
Language : English
Default : No
Forced : No

Text #2
ID : 4
Format : UTF-8
Codec ID : S_TEXT/UTF8
Codec ID/Info : UTF-8 Plain Text
Duration : 1 h 32 min
Bit rate : 46 b/s
Count of elements : 1257
Stream size : 31.5 KiB (0%)
Language : English
Default : No
Forced : No

Menu
00:00:00.000 : Chapter 01
00:06:49.576 : Chapter 02
00:13:56.586 : Chapter 03
00:21:07.475 : Chapter 04
00:32:15.143 : Chapter 05
00:41:28.363 : Chapter 06
00:51:11.738 : Chapter 07
00:58:18.873 : Chapter 08
01:05:58.833 : Chapter 09
01:16:05.774 : Chapter 10
01:28:14.044 : Chapter 11

资源速度为零或资源敏感被和谐时,推荐使用qBittorrent等下载软件,有条件的推荐115更好的下载软件!

下载地址:


游客,如果您要查看本帖隐藏内容请回复







上一篇:最后的风之子(俄版)/ The Last Airbender (2010)4K高清版本下载
下一篇:极限困境 / Hot Seat (2022) 4K高清版本下载
回复

使用道具 举报

3

主题

1352

帖子

4080

积分

4K家园VIP

Rank: 9Rank: 9Rank: 9

积分
4080
发表于 2022-7-1 18:27:11 | 显示全部楼层
没看懂
回复 支持 反对

使用道具 举报

1

主题

1395

帖子

4015

积分

4K家园VIP

Rank: 9Rank: 9Rank: 9

积分
4015
发表于 2022-7-1 18:45:49 | 显示全部楼层
very good
回复 支持 反对

使用道具 举报

1

主题

1274

帖子

3840

积分

4K家园VIP

Rank: 9Rank: 9Rank: 9

积分
3840
发表于 2022-7-1 21:44:29 | 显示全部楼层
支持一下楼主,顶起来
回复 支持 反对

使用道具 举报

8

主题

1178

帖子

3502

积分

4K家园VIP

Rank: 9Rank: 9Rank: 9

积分
3502
发表于 2022-7-2 00:06:47 | 显示全部楼层
撸过
回复 支持 反对

使用道具 举报

3

主题

1476

帖子

4282

积分

4K家园VIP

Rank: 9Rank: 9Rank: 9

积分
4282
发表于 2022-7-2 03:26:53 | 显示全部楼层
呵呵。。。
回复 支持 反对

使用道具 举报

0

主题

3

帖子

12

积分

新手上路

Rank: 1

积分
12
发表于 2022-7-2 07:16:46 | 显示全部楼层

支持一下楼主,顶起来
回复 支持 反对

使用道具 举报

0

主题

46

帖子

1434

积分

4K家园VIP

Rank: 9Rank: 9Rank: 9

积分
1434
发表于 2022-7-2 08:43:15 | 显示全部楼层
情节一定精彩!!
回复 支持 反对

使用道具 举报

0

主题

433

帖子

2643

积分

注册会员

Rank: 2

积分
2643
发表于 2022-7-2 11:53:24 | 显示全部楼层
谢谢楼主分享
回复 支持 反对

使用道具 举报

您需要登录后才可以回帖 登录 | 立即注册

本版积分规则

精彩图文
Archiver|手机版|TAG|Sitemap|新帖|专题|联系我们:邮箱: 4kjia.com@gmail.com   

4k家园   ©2019