[4K电影] 非凡公主 / The Princess (2022) 4K高清版本下载

[复制链接]

2163

主题

2306

帖子

1万

积分

超级版主

Rank: 8Rank: 8

积分
16861
 楼主| 发表于 2022-7-1 18:37:14 | 显示全部楼层 |阅读模式
本帖最后由 最爱4K哟 于 2022-7-1 20:26 编辑

QQ图片20220701180550_副本.png

◎标  题 非凡公主
◎译  名 公主
◎片  名 The Princess
◎年  代 2022
◎产  地 美国
◎类  别 剧情 / 动作 / 惊悚 / 奇幻
◎语  言 英语
◎上映日期 2022-07-01(美国网络)
◎IMDb评分 0/10 from 0 users
◎IMDb链接 https://www.imdb.com/title/tt13406136/
◎豆瓣评分 0/10 from 0 users
◎豆瓣链接 https://movie.douban.com/subject/35864061/
◎导  演 黎文杰 Le-Van Kiet
◎编  剧 本·卢斯蒂格 Ben Lustig / 杰克·桑顿 Jake Thornton / 杰克·桑顿 Jake Thornton
◎演  员 乔伊·金 Joey King
       吴青芸 Thanh Van Ngo
       伊沃·阿拉科夫 Ivo Arakov
       马丁·塔斯科夫 Martin Taskov
       瓦西尔·托舍夫 Vasil Toshev
       博日达尔·赫里斯托夫 Bozhidar Hristov
       德西·斯拉沃娃 Dessy Slavova



◎简  介

  乔伊·金饰演一名年轻的王室成员,爱刀剑胜过王冠,她必须从无情的雇佣兵手中拯救王国。

Video
ID : 1
Format : HEVC
Format/Info : High Efficiency Video Coding
Format profile : Main 10@L5.1@Main
Codec ID : V_MPEGH/ISO/HEVC
Duration : 1 h 34 min
Bit rate : 14.6 Mb/s
Width : 3 840 pixels
Height : 2 160 pixels
Display aspect ratio : 16:9
Frame rate mode : Constant
Frame rate : 24.000 FPS
Color space : YUV
Chroma subsampling : 4:2:0
Bit depth : 10 bits
Bits/(Pixel*Frame) : 0.073
Stream size : 9.57 GiB (98%)
Language : English
Default : Yes
Forced : No

Audio
ID : 2
Format : E-AC-3
Format/Info : Enhanced AC-3
Commercial name : Dolby Digital Plus
Codec ID : A_EAC3
Duration : 1 h 34 min
Bit rate mode : Constant
Bit rate : 256 kb/s
Channel(s) : 6 channels
Channel layout : L R C LFE Ls Rs
Sampling rate : 48.0 kHz
Frame rate : 31.250 FPS (1536 SPF)
Compression mode : Lossy
Stream size : 172 MiB (2%)
Language : English
Service kind : Complete Main
Default : Yes
Forced : No

Text #1
ID : 3
Format : UTF-8
Codec ID : S_TEXT/UTF8
Codec ID/Info : UTF-8 Plain Text
Duration : 1 h 25 min
Bit rate : 35 b/s
Count of elements : 878
Stream size : 22.2 KiB (0%)
Title : SDH
Language : English
Default : No
Forced : No

Text #2
ID : 4
Format : UTF-8
Codec ID : S_TEXT/UTF8
Codec ID/Info : UTF-8 Plain Text
Duration : 1 h 25 min
Bit rate : 27 b/s
Count of elements : 660
Stream size : 17.2 KiB (0%)
Language : English
Default : No
Forced : No

Text #3
ID : 5
Format : UTF-8
Codec ID : S_TEXT/UTF8
Codec ID/Info : UTF-8 Plain Text
Duration : 1 h 26 min
Bit rate : 33 b/s
Count of elements : 839
Stream size : 21.1 KiB (0%)
Title : SDH
Language : Spanish
Default : No
Forced : No

Text #4
ID : 6
Format : UTF-8
Codec ID : S_TEXT/UTF8
Codec ID/Info : UTF-8 Plain Text
Duration : 1 h 26 min
Bit rate : 25 b/s
Count of elements : 622
Stream size : 16.1 KiB (0%)
Language : Spanish
Default : No
Forced : No

Menu
00:00:00.000 : en:Chapter 01
01:27:32.190 : en:Credits

资源速度为零或资源敏感被和谐时,推荐使用qBittorrent等下载软件,有条件的推荐115更好的下载软件!

下载地址:


游客,如果您要查看本帖隐藏内容请回复

游客,如果您要查看本帖隐藏内容请回复

游客,如果您要查看本帖隐藏内容请回复

游客,如果您要查看本帖隐藏内容请回复





上一篇:极限困境 / Hot Seat (2022) 4K高清版本下载
下一篇:普里色毗罗阇 / Prithviraj (2022) 4K高清版本下载
回复

使用道具 举报

2

主题

1481

帖子

4247

积分

4K家园VIP

Rank: 9Rank: 9Rank: 9

积分
4247
发表于 2022-7-1 18:37:22 | 显示全部楼层
试试先,好用再说
回复 支持 反对

使用道具 举报

0

主题

4

帖子

21

积分

新手上路

Rank: 1

积分
21
发表于 2022-7-2 12:15:59 | 显示全部楼层
thanks for sharing
回复 支持 反对

使用道具 举报

0

主题

3

帖子

12

积分

新手上路

Rank: 1

积分
12
发表于 2022-7-2 18:20:09 | 显示全部楼层

谢谢分享!!谢谢分享!!
回复 支持 反对

使用道具 举报

0

主题

1

帖子

6

积分

新手上路

Rank: 1

积分
6
发表于 2022-7-3 19:36:46 | 显示全部楼层
thx。。。。。。。
回复

使用道具 举报

4

主题

1243

帖子

3761

积分

4K家园VIP

Rank: 9Rank: 9Rank: 9

积分
3761
发表于 2022-7-7 03:57:50 | 显示全部楼层
还有没有别的资源,多分享些
回复 支持 反对

使用道具 举报

56

主题

1554

帖子

4546

积分

4K家园VIP

Rank: 9Rank: 9Rank: 9

积分
4546
发表于 2022-7-7 12:51:45 来自手机 | 显示全部楼层
感谢分享
回复 支持 反对

使用道具 举报

38

主题

1552

帖子

4436

积分

4K家园VIP

Rank: 9Rank: 9Rank: 9

积分
4436
发表于 2022-7-17 03:05:13 来自手机 | 显示全部楼层
我也顶起出售广告位
回复 支持 反对

使用道具 举报

2

主题

1358

帖子

4090

积分

4K家园VIP

Rank: 9Rank: 9Rank: 9

积分
4090
发表于 2022-7-18 23:51:52 | 显示全部楼层
专业抢沙发的!哈哈
回复 支持 反对

使用道具 举报

您需要登录后才可以回帖 登录 | 立即注册

本版积分规则

精彩图文
Archiver|手机版|TAG|Sitemap|新帖|专题|联系我们:邮箱: 4kjia.com@gmail.com   

4k家园   ©2019