[4K电影] 星尘 / Stardust (2007) 4K高清版本下载

[复制链接]

2163

主题

2306

帖子

1万

积分

超级版主

Rank: 8Rank: 8

积分
16861
 楼主| 发表于 2022-7-8 10:09:12 | 显示全部楼层 |阅读模式
QQ图片20220708095642_副本.png

◎译  名 星尘/魔幻星尘(港)/星尘传奇(台)/星尘情缘/星云
◎片  名 Stardust
◎年  代 2007
◎产  地 美国/英国/冰岛
◎类  别 爱情/家庭/奇幻/冒险
◎语  言 英语
◎上映日期 2007-08-10(美国)
◎IMDb评分 7.6/10 from 270342 users
◎IMDb链接 https://www.imdb.com/title/tt0486655/
◎豆瓣评分 7.6/10 from 67867 users
◎豆瓣链接 https://movie.douban.com/subject/1867335/
◎导  演 马修·沃恩 Matthew Vaughn
◎编  剧 简·古德曼 Jane Goldman / 马修·沃恩 Matthew Vaughn / 尼尔·盖曼 Neil Gaiman
◎主  演 伊恩·麦克莱恩 Ian McKellen
       阿拉斯泰尔·麦金托什 Alastair MacIntosh
       大卫·凯利 David Kelly
       本·巴恩斯 Ben Barnes
       凯特·玛蔻温 Kate Magowan
       梅拉妮·希尔 Melanie Hill
       查理·考克斯 Charlie Cox
       西耶娜·米勒 Sienna Miller
       亨利·卡维尔 Henry Cavill
       内森奈尔·帕克 Nathaniel Parker
       弗兰克·埃利斯 Frank Ellis
       彼得·奥图尔 Peter O'Toole
       马克·斯特朗 Mark Strong
       杰森·弗莱明 Jason Flemyng
       马克·希普 Mark Heap
       斯特鲁恩·罗杰 Struan Rodger
       鲁伯特·艾弗雷特 Rupert Everett
       大卫·威廉姆斯 David Walliams
       朱利安·林希德-图特 Julian Rhind-Tutt
       亚当·布克斯顿 Adam Buxton
       米歇尔·菲佛 Michelle Pfeiffer
       克莱尔·丹妮丝 Claire Danes
       莎拉·亚历山大 Sarah Alexander
       乔安娜·斯坎伦 Joanna Scanlan
       乔治·因斯 George Innes
        杰克·库兰 Jake Curran
       马克·威廉姆斯 Mark Williams
       奥利维亚·格兰特 Olivia Grant
       可可·萨姆纳 Coco Sumner
       德克斯特·弗莱彻 Dexter Fletcher
       罗伯特·德尼罗 Robert De Niro
       瑞奇·热维斯 Ricky Gervais
       杰夫·贝尔 Geoff Bell
       拉布·阿弗莱克 Rab Affleck
       亚当·弗格蒂 Adam Fogerty
       乔丹·朗 Jordan Long
       斯宾塞·怀尔丁 Spencer Wilding
       拉斯科·阿特金斯 Lasco Atkins
       弗希雅·萨姆纳 Fuschia Sumner
       姜广涛 Guangtao Jiang
       马克·伯恩斯 Mark Burns
       艾米莉亚·克劳利 Amelia Crowley


◎简  介


  不要向流星许愿,否则它就会变成女人……故事开始于一个平静到让人昏昏欲睡的小村庄,由于村庄被一个鹅卵石城墙所包围,所以它也叫“围墙村”。虽然只是薄薄的一面城墙,却世世代代地保护着这里的村民,因为一墙之隔的外面世界,是一个平行宇宙,那里充满了魔幻与超自然的生物。生活在“围墙村”的特里斯坦·索恩和所有的年轻人一样,对村里最美丽的姑娘维多利亚一见倾心,为了能够得到她的爱,他甚至许下了这个世界上最不可能完成的诺言:带回天上落下的星星。

  为了能够完成许诺,特里斯坦不得不鼓足勇气穿越那道象征着禁忌的城墙,进入另一个世界--“暴风之所”,那是一个神秘的国度,到处都是永恒的魔法和流动的传奇,很快,特里斯坦就会完全融进这个独特的地域,成为其中的一个组成部分。

  当特里斯坦走进“暴风之所”,最终找到了流星下落的位置时,他发现自己看到的不是预期中的陨石,而是一个美丽、勇敢的女人……在进入大气层之时,“流星”不小心崴了脚,然而这只是一切不幸的开始而已,打从她脚落地开始,就有一系列的陷井在等着她,这个自称伊凡娜的“流星女”成了所有野心家围捕的猎物。特里斯坦就不用说了,即使没有陨石,他仍然要把伊凡娜带到维多利亚面前。除此之外,还有野蛮、残忍、邪恶的女巫,她想得到“流星”让青春永驻;国王的几个诡计多端的儿子,对于他们来说,得到“流星”,就等于得到王位。当然,这个过程中还有魔法师、小妖精以及一个会飞的海盗,他们因为各种各样的原因--有善意的,也有邪恶的,但他们的目的却只有一个,那就是伊凡娜的心脏。

  特里斯坦为了自己那不可告人的小秘密,决定保护伊凡娜,虽然他不知道这场旅程会带来多少不可思议的遭遇,但被爱情冲昏了头脑的他已经顾不得许多了。如果特里斯坦能够在如此大规模的围追堵截中运用智慧活下来,他就会发现,自己对维多利亚的感情,只是一种对美的期待,并不是真正的爱情。而他的“新欢”伊凡娜强大的力量,不仅是一切混乱的根源,也是开启他身份之谜的关键钥匙。

Video
ID : 1
Format : HEVC
Format/Info : High Efficiency Video Coding
Format profile : Main 10@L5@High
HDR format : Dolby Vision, Version 1.0, dvhe.05.06, BL+RPU
Codec ID : V_MPEGH/ISO/HEVC
Duration : 2 h 7 min
Bit rate : 24.5 Mb/s
Width : 3 840 pixels
Height : 1 600 pixels
Display aspect ratio : 2.40:1
Frame rate mode : Constant
Frame rate : 23.976 (24000/1001) FPS
Color space : YUV
Chroma subsampling : 4:2:0
Bit depth : 10 bits
Bits/(Pixel*Frame) : 0.166
Stream size : 21.9 GiB (85%)
Default : Yes
Forced : No

Audio #1
ID : 2
Format : DTS XLL
Format/Info : Digital Theater Systems
Commercial name : DTS-HD Master Audio
Codec ID : A_DTS
Duration : 2 h 7 min
Bit rate mode : Variable
Bit rate : 3 844 kb/s
Channel(s) : 6 channels
Channel layout : C L R Ls Rs LFE
Sampling rate : 48.0 kHz
Frame rate : 93.750 FPS (512 SPF)
Bit depth : 24 bits
Compression mode : Lossless
Delay relative to video : 3 ms
Stream size : 3.43 GiB (13%)
Title : English
Language : English
Default : Yes
Forced : No

Audio #2
ID : 3
Format : AC-3
Format/Info : Audio Coding 3
Commercial name : Dolby Digital
Codec ID : A_AC3
Duration : 2 h 7 min
Bit rate mode : Constant
Bit rate : 384 kb/s
Channel(s) : 6 channels
Channel layout : L R C LFE Ls Rs
Sampling rate : 48.0 kHz
Frame rate : 31.250 FPS (1536 SPF)
Compression mode : Lossy
Stream size : 351 MiB (1%)
Title : British
Language : English
Service kind : Complete Main
Default : Yes
Forced : No

Text #1
ID : 4
Format : UTF-8
Codec ID : S_TEXT/UTF8
Codec ID/Info : UTF-8 Plain Text
Duration : 2 h 0 min
Bit rate : 51 b/s
Count of elements : 1221
Stream size : 45.1 KiB (0%)
Language : English
Default : Yes
Forced : No

Text #2
ID : 5
Format : UTF-8
Codec ID : S_TEXT/UTF8
Codec ID/Info : UTF-8 Plain Text
Duration : 2 h 0 min
Bit rate : 42 b/s
Count of elements : 1154
Stream size : 37.1 KiB (0%)
Title : French European
Language : French
Default : No
Forced : No

Text #3
ID : 6
Format : PGS
Muxing mode : zlib
Codec ID : S_HDMV/PGS
Codec ID/Info : Picture based subtitle format used on BDs/HD-DVDs
Duration : 2 h 0 min
Bit rate : 31.9 kb/s
Count of elements : 2442
Stream size : 27.4 MiB (0%)
Title : English
Language : English
Default : No
Forced : No

Text #4
ID : 7
Format : PGS
Muxing mode : zlib
Codec ID : S_HDMV/PGS
Codec ID/Info : Picture based subtitle format used on BDs/HD-DVDs
Duration : 2 h 0 min
Bit rate : 34.0 kb/s
Count of elements : 2670
Stream size : 29.2 MiB (0%)
Title : English (SDH)
Language : English
Default : No
Forced : No

Text #5
ID : 8
Format : PGS
Muxing mode : zlib
Codec ID : S_HDMV/PGS
Codec ID/Info : Picture based subtitle format used on BDs/HD-DVDs
Duration : 2 h 0 min
Bit rate : 66.3 kb/s
Count of elements : 4109
Stream size : 57.4 MiB (0%)
Title : English commentary
Language : English
Default : No
Forced : No

Text #6
ID : 9
Format : PGS
Muxing mode : zlib
Codec ID : S_HDMV/PGS
Codec ID/Info : Picture based subtitle format used on BDs/HD-DVDs
Duration : 2 h 7 min
Bit rate : 24.4 kb/s
Count of elements : 2262
Stream size : 22.2 MiB (0%)
Title : Danish
Language : Danish
Default : No
Forced : No

Text #7
ID : 10
Format : PGS
Muxing mode : zlib
Codec ID : S_HDMV/PGS
Codec ID/Info : Picture based subtitle format used on BDs/HD-DVDs
Duration : 2 h 7 min
Bit rate : 31.8 kb/s
Count of elements : 2456
Stream size : 28.9 MiB (0%)
Title : German
Language : German
Default : No
Forced : No

Text #8
ID : 11
Format : PGS
Muxing mode : zlib
Codec ID : S_HDMV/PGS
Codec ID/Info : Picture based subtitle format used on BDs/HD-DVDs
Duration : 2 h 7 min
Bit rate : 28.0 kb/s
Count of elements : 2456
Stream size : 25.4 MiB (0%)
Title : Spanish
Language : Spanish
Default : No
Forced : No

Text #9
ID : 12
Format : PGS
Muxing mode : zlib
Codec ID : S_HDMV/PGS
Codec ID/Info : Picture based subtitle format used on BDs/HD-DVDs
Duration : 2 h 7 min
Bit rate : 23.9 kb/s
Count of elements : 2306
Stream size : 21.7 MiB (0%)
Title : French
Language : French
Default : No
Forced : No

Text #10
ID : 13
Format : PGS
Muxing mode : zlib
Codec ID : S_HDMV/PGS
Codec ID/Info : Picture based subtitle format used on BDs/HD-DVDs
Duration : 2 h 7 min
Bit rate : 26.7 kb/s
Count of elements : 2458
Stream size : 24.3 MiB (0%)
Title : Italian
Language : Italian
Default : No
Forced : No

Text #11
ID : 14
Format : PGS
Muxing mode : zlib
Codec ID : S_HDMV/PGS
Codec ID/Info : Picture based subtitle format used on BDs/HD-DVDs
Duration : 2 h 7 min
Bit rate : 24.3 kb/s
Count of elements : 2184
Stream size : 22.0 MiB (0%)
Title : Dutch
Language : Dutch
Default : No
Forced : No

Text #12
ID : 15
Format : PGS
Muxing mode : zlib
Codec ID : S_HDMV/PGS
Codec ID/Info : Picture based subtitle format used on BDs/HD-DVDs
Duration : 2 h 7 min
Bit rate : 22.8 kb/s
Count of elements : 2328
Stream size : 20.7 MiB (0%)
Title : Norwegian
Language : Norwegian
Default : No
Forced : No

Text #13
ID : 16
Format : PGS
Muxing mode : zlib
Codec ID : S_HDMV/PGS
Codec ID/Info : Picture based subtitle format used on BDs/HD-DVDs
Duration : 2 h 7 min
Bit rate : 26.0 kb/s
Count of elements : 2344
Stream size : 23.6 MiB (0%)
Title : Portuguese
Language : Portuguese
Default : No
Forced : No

Text #14
ID : 17
Format : PGS
Muxing mode : zlib
Codec ID : S_HDMV/PGS
Codec ID/Info : Picture based subtitle format used on BDs/HD-DVDs
Duration : 2 h 7 min
Bit rate : 23.5 kb/s
Count of elements : 2338
Stream size : 21.3 MiB (0%)
Title : Finnish
Language : Finnish
Default : No
Forced : No

Text #15
ID : 18
Format : PGS
Muxing mode : zlib
Codec ID : S_HDMV/PGS
Codec ID/Info : Picture based subtitle format used on BDs/HD-DVDs
Duration : 2 h 7 min
Bit rate : 25.0 kb/s
Count of elements : 2344
Stream size : 22.7 MiB (0%)
Title : Swedish
Language : Swedish
Default : No
Forced : No

Menu
00:00:00.000 : en:Chapter 01
00:07:28.156 : en:Chapter 02
00:15:58.917 : en:Chapter 03
00:23:13.727 : en:Chapter 04
00:30:01.760 : en:Chapter 05
00:38:15.462 : en:Chapter 06
00:44:40.513 : en:Chapter 07
00:51:00.935 : en:Chapter 08
00:56:45.113 : en:Chapter 09
01:04:09.849 : en:Chapter 10
01:11:54.272 : en:Chapter 11
01:18:27.082 : en:Chapter 12
01:25:05.480 : en:Chapter 13
01:33:35.198 : en:Chapter 14
01:42:07.377 : en:Chapter 15
01:49:01.583 : en:Chapter 16
01:55:43.735 : en:Chapter 17
02:00:48.456 : en:Chapter 18


资源速度为零或资源敏感被和谐时,推荐使用qBittorrent等下载软件,有条件的推荐115更好的下载软件!

下载地址:


游客,如果您要查看本帖隐藏内容请回复

游客,如果您要查看本帖隐藏内容请回复

游客,如果您要查看本帖隐藏内容请回复





上一篇:裸体星期二 / Nude.Tuesday (2022) 4K高清版本下载
下一篇:奖命 / 1Up (2022) 4K高清版本下载
回复

使用道具 举报

1

主题

1397

帖子

4045

积分

4K家园VIP

Rank: 9Rank: 9Rank: 9

积分
4045
发表于 2022-7-8 10:09:20 来自手机 | 显示全部楼层
正需要
回复 支持 反对

使用道具 举报

37

主题

1418

帖子

4070

积分

4K家园VIP

Rank: 9Rank: 9Rank: 9

积分
4070
发表于 2022-7-8 11:49:32 来自手机 | 显示全部楼层
无论是不是沙发都得回复下
回复 支持 反对

使用道具 举报

50

主题

1495

帖子

4257

积分

4K家园VIP

Rank: 9Rank: 9Rank: 9

积分
4257
发表于 2022-7-8 12:52:34 | 显示全部楼层
路过 帮顶 嘿嘿
回复 支持 反对

使用道具 举报

47

主题

1485

帖子

4273

积分

4K家园VIP

Rank: 9Rank: 9Rank: 9

积分
4273
发表于 2022-7-8 12:55:02 | 显示全部楼层
前排支持下
回复 支持 反对

使用道具 举报

1

主题

1610

帖子

4472

积分

4K家园VIP

Rank: 9Rank: 9Rank: 9

积分
4472
发表于 2022-7-8 13:15:16 | 显示全部楼层
体验下4K版的
回复 支持 反对

使用道具 举报

您需要登录后才可以回帖 登录 | 立即注册

本版积分规则

精彩图文
Archiver|手机版|TAG|Sitemap|新帖|专题|联系我们:邮箱: 4kjia.com@gmail.com   

4k家园   ©2019