[4K电影] 特种兵 / The Commando (2022) 4K高清版本下载

[复制链接]

2163

主题

2306

帖子

1万

积分

超级版主

Rank: 8Rank: 8

积分
16861
 楼主| 发表于 2022-7-8 20:28:03 | 显示全部楼层 |阅读模式
特种兵.png

◎译  名 特种兵/特攻队员
◎片  名 The Commando
◎年  代 2022
◎产  地 美国
◎类  别 动作/惊悚
◎语  言 英语
◎上映日期 2022-01-07(美国)
◎IMDb评分 3.2/10 from 927 users
◎IMDb链接 https://www.imdb.com/title/tt12689248/
◎豆瓣评分 4.0/10 from 183 users
◎豆瓣链接 https://movie.douban.com/subject/35410486/
◎主  演 米基·洛克 Mickey Rourke
       布兰登·费尔 Brendan Fehr
       迈克尔·加·怀特 Michael Jai White
       杰夫·法赫 Jeff Fahey
       约翰·伊诺斯三世 John Enos III
       基兰·加拉赫 Kieran Gallagher
       托尼·赫伯特 Tony Herbert
       塔马斯·纳达斯 Tamas Nadas

◎简  介

  一名患有创伤后应激障碍的缉毒局特工在一次失败的任务后返回家中,在一名最近获释的罪犯及其追随者在特工家中藏匿了数百万美元后,现在必须保护他的家人免受家庭入侵。

Video
ID : 1
Format : HEVC
Format/Info : High Efficiency Video Coding
Format profile : Main 10@L5@Main
HDR format : SMPTE ST 2094 App 4, Version 1, HDR10+ Profile B compatible
Codec ID : V_MPEGH/ISO/HEVC
Duration : 1 h 32 min
Bit rate : 14.7 Mb/s
Width : 3 840 pixels
Height : 1 600 pixels
Display aspect ratio : 2.40:1
Frame rate mode : Constant
Frame rate : 23.976 (24000/1001) FPS
Color space : YUV
Chroma subsampling : 4:2:0
Bit depth : 10 bits
Bits/(Pixel*Frame) : 0.100
Stream size : 9.52 GiB (80%)
Language : English
Default : Yes
Forced : No
Color range : Limited
Color primaries : BT.2020
Transfer characteristics : PQ
Matrix coefficients : BT.2020 non-constant
Mastering display color primaries : Display P3
Mastering display luminance : min: 0.0500 cd/m2, max: 1000 cd/m2
Maximum Content Light Level : 1133 cd/m2
Maximum Frame-Average Light Level : 691 cd/m2

Audio
ID : 2
Format : DTS ES XLL
Format/Info : Digital Theater Systems
Commercial name : DTS-HD Master Audio
Codec ID : A_DTS
Duration : 1 h 32 min
Bit rate mode : Variable
Bit rate : 3 587 kb/s
Channel(s) : 6 channels
Channel(s)_Original : 7 channels
ChannelLayout_Original : C L R Ls Rs LFE Cb
Sampling rate : 48.0 kHz
Frame rate : 93.750 FPS (512 SPF)
Bit depth : 24 bits
Compression mode : Lossless
Delay relative to video : 6 s 90 ms
Stream size : 2.32 GiB (20%)
Title : DTS-HD Master Audio / 5.1-ES / 48 kHz / 3587 kbps / 24-bit
Language : English
Default : Yes
Forced : No

Text #1
ID : 3
Format : UTF-8
Codec ID : S_TEXT/UTF8
Codec ID/Info : UTF-8 Plain Text
Duration : 1 h 26 min
Bit rate : 38 b/s
Count of elements : 902
Stream size : 24.5 KiB (0%)
Language : English
Default : No
Forced : No

Text #2
ID : 4
Format : PGS
Codec ID : S_HDMV/PGS
Codec ID/Info : Picture based subtitle format used on BDs/HD-DVDs
Duration : 1 h 31 min
Bit rate : 12.5 kb/s
Count of elements : 1166
Stream size : 8.15 MiB (0%)
Language : Danish
Default : No
Forced : No

Text #3
ID : 5
Format : PGS
Codec ID : S_HDMV/PGS
Codec ID/Info : Picture based subtitle format used on BDs/HD-DVDs
Duration : 1 h 31 min
Bit rate : 13.2 kb/s
Count of elements : 1166
Stream size : 8.60 MiB (0%)
Language : Finnish
Default : No
Forced : No

Text #4
ID : 6
Format : PGS
Codec ID : S_HDMV/PGS
Codec ID/Info : Picture based subtitle format used on BDs/HD-DVDs
Duration : 1 h 31 min
Bit rate : 11.8 kb/s
Count of elements : 1166
Stream size : 7.70 MiB (0%)
Language : Norwegian
Default : No
Forced : No

Text #5
ID : 7
Format : PGS
Codec ID : S_HDMV/PGS
Codec ID/Info : Picture based subtitle format used on BDs/HD-DVDs
Duration : 1 h 31 min
Bit rate : 13.4 kb/s
Count of elements : 1168
Stream size : 8.77 MiB (0%)
Language : Swedish
Default : No
Forced : No

Menu
00:00:06.090 : en:Chapter 01
00:14:35.959 : en:Chapter 02
00:31:53.996 : en:Chapter 03
00:48:36.998 : en:Chapter 04
01:05:06.987 : en:Chapter 05
01:19:36.856 : en:Chapter 06


资源速度为零或资源敏感被和谐时,推荐使用qBittorrent等下载软件,有条件的推荐115更好的下载软件!

下载地址:


游客,如果您要查看本帖隐藏内容请回复








上一篇:奖命 / 1Up (2022) 4K高清版本下载
下一篇:告别有情天 / The Remains of the Day (1993) 4K高清版本下载
回复

使用道具 举报

52

主题

1535

帖子

4427

积分

4K家园VIP

Rank: 9Rank: 9Rank: 9

积分
4427
发表于 2022-7-8 20:28:08 来自手机 | 显示全部楼层
回个帖子,下班咯~
回复 支持 反对

使用道具 举报

3

主题

1344

帖子

4050

积分

4K家园VIP

Rank: 9Rank: 9Rank: 9

积分
4050
发表于 2022-7-8 20:33:36 来自手机 | 显示全部楼层
在撸一遍。。。
回复 支持 反对

使用道具 举报

1

主题

1388

帖子

3964

积分

中级会员

Rank: 4

积分
3964
发表于 2022-7-8 23:40:31 | 显示全部楼层
围观 围观 沙发在哪里!!!
回复 支持 反对

使用道具 举报

2

主题

1373

帖子

3939

积分

4K家园VIP

Rank: 9Rank: 9Rank: 9

积分
3939
发表于 2022-7-8 23:57:08 | 显示全部楼层
路过
回复 支持 反对

使用道具 举报

3

主题

1352

帖子

4080

积分

4K家园VIP

Rank: 9Rank: 9Rank: 9

积分
4080
发表于 2022-7-9 00:29:13 来自手机 | 显示全部楼层
差评
回复 支持 反对

使用道具 举报

0

主题

81

帖子

183

积分

新手上路

Rank: 1

积分
183
发表于 2022-7-9 16:23:35 | 显示全部楼层
4K高清版本下载 [修改]
回复 支持 反对

使用道具 举报

0

主题

5

帖子

25

积分

新手上路

Rank: 1

积分
25
发表于 2022-7-9 20:28:26 | 显示全部楼层
期待效果
回复

使用道具 举报

3

主题

92

帖子

1180

积分

4K家园VIP

Rank: 9Rank: 9Rank: 9

积分
1180
发表于 2022-7-10 20:57:40 | 显示全部楼层
字幕在哪?没字幕怎么看
回复 支持 反对

使用道具 举报

0

主题

1

帖子

42

积分

4K家园VIP

Rank: 9Rank: 9Rank: 9

积分
42
发表于 2022-7-11 14:55:26 | 显示全部楼层
期盼已久的大片
回复 支持 反对

使用道具 举报

您需要登录后才可以回帖 登录 | 立即注册

本版积分规则

精彩图文
Archiver|手机版|TAG|Sitemap|新帖|专题|联系我们:邮箱: 4kjia.com@gmail.com   

4k家园   ©2019