[4K电影] 人鬼情未了 / Ghost (1990) 4K高清版本下载

[复制链接]

2163

主题

2306

帖子

1万

积分

超级版主

Rank: 8Rank: 8

积分
16861
 楼主| 发表于 2022-7-9 20:56:21 | 显示全部楼层 |阅读模式
本帖最后由 最爱4K哟 于 2022-7-9 20:58 编辑

QQ图片20220709204623_副本.png

◎标  题 人鬼情未了
◎译  名 第六感生死恋(台) / 生死第六感 / 幽灵
◎片  名 Ghost
◎年  代 1990
◎产  地 美国
◎类  别 剧情 / 爱情 / 奇幻
◎语  言 英语
◎上映日期 1990-07-13
◎IMDb评分 7.1/10 from 214080 users
◎IMDb链接 https://www.imdb.com/title/tt0099653/
◎豆瓣评分 8.3/10 from 201698 users
◎豆瓣链接 https://movie.douban.com/subject/1293203/
◎片  长 127 分钟
◎导  演 杰瑞·扎克 Jerry Zucker
◎编  剧 布鲁斯·乔尔·鲁宾 Bruce Joel Rubin
◎演  员 帕特里克·斯威兹 Patrick Swayze
       黛米·摩尔 Demi Moore
       托尼·戈德温 Tony Goldwyn
       乌比·戈德堡 Whoopi Goldberg
       斯蒂芬·鲁特 Stephen Root
       文森特·斯卡维利 Vincent Schiavelli
       菲尔·利兹 Phil Leeds
       阿尔玛·贝特兰 Alma Beltran
       Mike Jittlov Mike Jittlov
       丽萨·韦恩斯坦 Lisa Weinstein
       莫里斯·雅尔 Maurice Jarre
       亚当·格林伯格 Adam Greenberg
       沃尔特·默奇 Walter Murch
       珍妮特·希尔森 Janet Hirshenson
       马克·W·曼斯布里奇 Mark W. Mansbridge
       Marietta Carter-Narcisse Marietta Carter-Narcisse
       迪欧妮·泰勒 Dione Taylor
       朱莉亚·L·沃克尔 Julia L. Walker
       查利·皮切尔尼 Charlie Picerni
       杰克·莫多万 Jack Mongovan
       马可·A·Z·迪普 Mark A.Z. Dippé
       肯尼斯·史密斯 Kenneth Smith
       Jim Morris Jim Morris
       吉姆·瑞吉尔 Jim Rygiel
       斯图尔特·罗伯特森 Stuart Robertson
       芭芭拉·布伦南 Barbara Brennan
       David S. Williams Jr. David S. Williams Jr.
       托马斯·J·史密斯 Thomas J. Smith
       Martin Rosenberg Martin Rosenberg
       Mike Jittlov Mike Jittlov
       布鲁斯·尼科尔森 Bruce Nicholson
       乔恩·亚历山大 Jon Alexander
       戈登·贝克尔 Gordon Baker
       Ned Gorman Ned Gorman
       Ellen Somers Ellen Somers
       埃德·琼斯 Ed Jones
       托马斯·罗塞特 Thomas Rosseter
       布莱恩·格南德 Brian Gernand
       Laura Buff Laura Buff
       洛尔恩·彼得森 Lorne Peterson
       Judith Weaver Judith Weaver
       加里·沃勒 Garry Waller
       约翰·T·范弗利特 John T. Van Vliet
       汤姆·柏提诺 Tom Bertino


◎简  介


  年轻的银行职员萨姆(帕特里克•斯威兹)与未婚妻美莉(黛咪•摩尔)相爱极深,在朋友卡尔(托尼•戈德温)的热情帮助下,他们搬进一幢漂亮的公寓,做着结婚前的准备。某晚看戏归来时,他们遭遇持枪歹徒,与歹徒搏斗时,萨姆不幸中枪身亡,美莉悲痛欲绝。
萨姆变作幽灵,发现卡尔是导致他死亡的幕后策划,而为了窃取银行里的巨款,他又对美莉展开追求,以便获得萨姆所掌握的密码。为了保护美莉,萨姆常常游荡于她的周围,并渐渐地学会了如何使用力量,但他苦于无法同美莉交流。在能与幽灵沟通的灵媒奥塔的帮助下,他与美莉取得联系,但美莉起初并不相信,直到事实令她感受到萨姆的存在,可是,深深相爱的两人仍无法直接接触和交流。

Video
ID : 1
Format : HEVC
Format/Info : High Efficiency Video Coding
Format profile : Main 10@L5@High
HDR format : Dolby Vision, Version 1.0, dvhe.05.06, BL+RPU
Codec ID : dvhe
Codec ID/Info : High Efficiency Video Coding with Dolby Vision
Duration : 2 h 6 min
Bit rate : 24.9 Mb/s
Width : 3 840 pixels
Height : 2 160 pixels
Display aspect ratio : 16:9
Frame rate mode : Constant
Frame rate : 23.976 (24000/1001) FPS
Color space : YUV
Chroma subsampling : 4:2:0
Bit depth : 10 bits
Bits/(Pixel*Frame) : 0.125
Stream size : 22.0 GiB (98%)
Default : Yes
Alternate group : 1
Encoded date : UTC 2022-07-09 09:58:04
Tagged date : UTC 2022-07-09 10:01:24
Codec configuration box : hvcC+dvcC

Audio
ID : 2
Format : AC-3
Format/Info : Audio Coding 3
Commercial name : Dolby Digital
Codec ID : ac-3
Duration : 2 h 6 min
Bit rate mode : Constant
Bit rate : 384 kb/s
Maximum bit rate : 406 kb/s
Channel(s) : 6 channels
Channel layout : L R C LFE Ls Rs
Sampling rate : 48.0 kHz
Frame rate : 31.250 FPS (1536 SPF)
Compression mode : Lossy
Stream size : 348 MiB (2%)
Title : English
Language : English
Service kind : Complete Main
Default : Yes
Alternate group : 1
Tagged date : UTC 2022-07-09 10:01:24

Text #1
ID : 3
Format : Timed Text
Codec ID : tx3g
Duration : 2 h 1 min
Bit rate mode : Variable
Bit rate : 60 b/s
Stream size : 53.2 KiB (0%)
Title : English
Language : English
Forced : No
Encoded date : UTC 2022-07-09 10:01:24
Tagged date : UTC 2022-07-09 10:01:24

Text #2
ID : 4
Format : Timed Text
Codec ID : tx3g
Duration : 2 h 1 min
Bit rate mode : Variable
Bit rate : 42 b/s
Stream size : 37.7 KiB (0%)
Title : French
Language : French
Forced : No
Encoded date : UTC 2022-07-09 10:01:24
Tagged date : UTC 2022-07-09 10:01:24

资源速度为零或资源敏感被和谐时,推荐使用qBittorrent等下载软件,有条件的推荐115更好的下载软件

下载地址:

游客,如果您要查看本帖隐藏内容请回复

游客,如果您要查看本帖隐藏内容请回复

游客,如果您要查看本帖隐藏内容请回复


相关4K蓝光REMUX 版本链接:《人鬼情未了/生死第六感(俄版)》4K蓝光REMUX 版本下载相关4K高清版本链接:人鬼情未了 / Ghost‎ (1990) 4K高清下载/9.64GB




上一篇:异形大战铁血战士 / Alien Vs Predator (2004) 4K高清版本下载
下一篇:大卫·科波菲尔的个人史 / David Copperfield (2019) 4K高清版本下载
回复

使用道具 举报

48

主题

1537

帖子

4483

积分

4K家园VIP

Rank: 9Rank: 9Rank: 9

积分
4483
发表于 2022-7-9 20:56:27 | 显示全部楼层
撸过
回复 支持 反对

使用道具 举报

2

主题

1351

帖子

4077

积分

4K家园VIP

Rank: 9Rank: 9Rank: 9

积分
4077
发表于 2022-7-9 21:09:42 | 显示全部楼层
打酱油的人拉,回复下赚取积分
回复 支持 反对

使用道具 举报

0

主题

1

帖子

6

积分

新手上路

Rank: 1

积分
6
发表于 2022-7-9 21:29:11 | 显示全部楼层

nude female videos

nude female videos
回复 支持 反对

使用道具 举报

2

主题

1465

帖子

4231

积分

4K家园VIP

Rank: 9Rank: 9Rank: 9

积分
4231
发表于 2022-7-9 21:49:58 | 显示全部楼层
支持楼主,用户楼主,楼主英明呀!!!
回复 支持 反对

使用道具 举报

2

主题

1381

帖子

4009

积分

4K家园VIP

Rank: 9Rank: 9Rank: 9

积分
4009
发表于 2022-7-9 23:22:15 | 显示全部楼层
4K家园不错,希望这种资源越多越好
回复 支持 反对

使用道具 举报

67

主题

1560

帖子

4498

积分

4K家园VIP

Rank: 9Rank: 9Rank: 9

积分
4498
发表于 2022-7-10 00:03:22 | 显示全部楼层
为了三千积分!
回复 支持 反对

使用道具 举报

0

主题

433

帖子

2643

积分

注册会员

Rank: 2

积分
2643
发表于 2022-7-10 11:57:30 | 显示全部楼层
楼主辛苦了
回复 支持 反对

使用道具 举报

您需要登录后才可以回帖 登录 | 立即注册

本版积分规则

精彩图文
Archiver|手机版|TAG|Sitemap|新帖|专题|联系我们:邮箱: 4kjia.com@gmail.com   

4k家园   ©2019