天外来客 (2022) 第三季/10集全/ 4K高清版本下载

[复制链接]

188

主题

211

帖子

2061

积分

版主

Rank: 7Rank: 7Rank: 7

积分
2061
 楼主| 发表于 2022-7-10 21:52:16 | 显示全部楼层 |阅读模式
p2870825502.webp_副本.jpg

◎译  名 天外来客/剧版天外来客
◎片  名 The Man Who Fell to Earth
◎年  代 2022
◎产  地 美国/英国
◎类  别 科幻
◎语  言 英语
◎上映日期 2022-04-24(美国)
◎IMDb评分 6.9/10 from 5457 users
◎IMDb链接 https://www.imdb.com/title/tt10758074/
◎豆瓣评分 6.4/10 from 450 users
◎豆瓣链接 https://douban.com/subject/34784845/
◎导  演 艾里克斯·库兹曼 Alex Kurtzman
◎编  剧 艾里克斯·库兹曼 Alex Kurtzman / 詹妮·吕美特 Jenny Lumet
◎主  演 比尔·奈伊 Bill Nighy
       切瓦特·埃加福 Chiwetel Ejiofor
       娜奥米·哈里斯 Naomie Harris
       凯特·穆格鲁 Kate Mulgrew
       罗伯·德兰尼 Rob Delaney
       索妮娅·卡西迪 Sonya Cassidy
       克拉克·彼得斯 Clarke Peters
       乔安娜·里贝罗 Joana Ribeiro
       莎拉·莫尔肯廷 Sarah Molkenthin
       乔什·赫德曼 Josh Herdman
       托米·梅 Tomi May
       吉米·辛普森 Jimmi Simpson
       米切尔·马伦 Mitchell Mullen
       维克多·阿里 Victor Alli



◎简  介


  本剧基于同名小说和1976年书改电影创作。剧版将讲述一个新外星人(Chiwetel Ejiofor饰)在人类的进化转折点来到地球,他得面对自己的过去并决定人类的未来。

Video
ID : 1
Format : HEVC
Format/Info : High Efficiency Video Coding
Format profile : Main 10@L5@Main
HDR format : SMPTE ST 2086, HDR10 compatible
Codec ID : V_MPEGH/ISO/HEVC
Duration : 59 min 55 s
Bit rate : 14.6 Mb/s
Width : 3 840 pixels
Height : 2 160 pixels
Display aspect ratio : 16:9
Frame rate mode : Constant
Frame rate : 23.976 (24000/1001) FPS
Color space : YUV
Chroma subsampling : 4:2:0
Bit depth : 10 bits
Bits/(Pixel*Frame) : 0.073
Stream size : 6.09 GiB (96%)
Writing library : x265 3.4hy:[Linux][GCC 7.5.0][64 bit] 10bit
Encoding settings : cpuid=1111039 / frame-threads=6 / no-wpp / no-pmode / no-pme / no-psnr / no-ssim / log-level=2 / input-csp=1 / input-res=3840x2160 / interlace=0 / total-frames=0 / level-idc=0 / high-tier=1 / uhd-bd=0 / ref=4 / no-allow-non-conformance / repeat-headers / annexb / aud / hrd / info / hash=0 / no-temporal-layers / no-open-gop / min-keyint=48 / keyint=48 / gop-lookahead=0 / bframes=4 / b-adapt=2 / b-pyramid / bframe-bias=0 / rc-lookahead=48 / lookahead-slices=4 / scenecut=0 / hist-scenecut=0 / radl=0 / no-splice / no-intra-refresh / ctu=64 / min-cu-size=8 / rect / no-amp / max-tu-size=32 / tu-inter-depth=1 / tu-intra-depth=1 / limit-tu=0 / rdoq-level=2 / dynamic-rd=0.00 / no-ssim-rd / signhide / no-tskip / nr-intra=100 / nr-inter=400 / no-constrained-intra / strong-intra-smoothing / max-merge=3 / limit-refs=3 / limit-modes / me=3 / subme=3 / merange=57 / temporal-mvp / no-frame-dup / no-hme / weightp / no-weightb / no-analyze-src-pics / deblock=0:0 / sao / no-sao-non-deblock / rd=4 / selective-sao=4 / no-early-skip / rskip / no-fast-intra / no-tskip-fast / no-cu-lossless / no-b-intra / no-splitrd-skip / rdpenalty=0 / psy-rd=0.00 / psy-rdoq=1.00 / no-rd-refine / no-lossless / cbqpoffs=0 / crqpoffs=3 / rc=abr / bitrate=15000 / qcomp=0.60 / qpstep=4 / stats-write=0 / stats-read=2 / cplxblur=20.0 / qblur=0.5 / vbv-maxrate=18000 / vbv-bufsize=12000 / vbv-init=0.6 / vbv-end=0.6 / vbv-end-fr-adj=0.0 / ipratio=1.40 / pbratio=1.30 / aq-mode=2 / aq-strength=1.00 / cutree / zone-count=0 / no-strict-cbr / qg-size=32 / no-rc-grain / qpmax=69 / qpmin=0 / no-const-vbv / sar=1 / overscan=0 / videoformat=5 / range=0 / colorprim=9 / transfer=16 / colormatrix=9 / chromaloc=0 / display-window=0 / master-display=G(13250,34500)B(7500,3000)R(34000,16000)WP(15635,16450)L(10000000,1) / cll=368,225 / min-luma=0 / max-luma=1023 / log2-max-poc-lsb=8 / vui-timing-info / vui-hrd-info / no-concatenation / slices=1 / no-opt-qp-pps / no-opt-ref-list-length-pps / no-multi-pass-opt-rps / scenecut-bias=0.05 / hist-threshold=0.01 / no-opt-cu-delta-qp / no-aq-motion / hdr10 / no-hdr10-opt / no-dhdr10-opt / no-idr-recovery-sei / analysis-reuse-level=0 / analysis-save-reuse-level=0 / analysis-load-reuse-level=0 / scale-factor=0 / refine-intra=0 / refine-inter=0 / refine-mv=1 / refine-ctu-distortion=0 / no-limit-sao / ctu-info=0 / no-lowpass-dct / refine-analysis-type=0 / copy-pic=1 / max-ausize-factor=1.0 / no-dynamic-refine / no-single-sei / no-hevc-aq / no-svt / no-field / qp-adaptation-range=1.00 / no-scenecut-aware-qpconformance-window-offsets / right=0 / bottom=0 / decoder-max-rate=0
Default : Yes
Forced : No
Color range : Limited
Color primaries : BT.2020
Transfer characteristics : PQ
Matrix coefficients : BT.2020 non-constant
Mastering display color primaries : Display P3
Mastering display luminance : min: 0.0001 cd/m2, max: 1000 cd/m2
Maximum Content Light Level : 368 cd/m2
Maximum Frame-Average Light Level : 225 cd/m2

Audio
ID : 2
Format : E-AC-3
Format/Info : Enhanced AC-3
Commercial name : Dolby Digital Plus
Codec ID : A_EAC3
Duration : 59 min 55 s
Bit rate mode : Constant
Bit rate : 640 kb/s
Channel(s) : 6 channels
Channel layout : L R C LFE Ls Rs
Sampling rate : 48.0 kHz
Frame rate : 31.250 FPS (1536 SPF)
Compression mode : Lossy
Delay relative to video : 18 ms
Stream size : 274 MiB (4%)
Language : English
Service kind : Complete Main
Default : Yes
Forced : No

Text #1
ID : 3
Format : UTF-8
Codec ID : S_TEXT/UTF8
Codec ID/Info : UTF-8 Plain Text
Duration : 56 min 3 s
Bit rate : 58 b/s
Frame rate : 0.264 FPS
Count of elements : 888
Stream size : 24.2 KiB (0%)
Language : English
Default : No
Forced : No

Text #2
ID : 4
Format : UTF-8
Codec ID : S_TEXT/UTF8
Codec ID/Info : UTF-8 Plain Text
Duration : 58 min 22 s
Bit rate : 62 b/s
Frame rate : 0.282 FPS
Count of elements : 987
Stream size : 26.7 KiB (0%)
Title : SDH
Language : English
Default : No
Forced : No

Menu
00:00:00.000 : en:Chapter 1
00:58:39.000 : en:Credits

下载地址:

游客,如果您要查看本帖隐藏内容请回复





上一篇:谁有全能侦探社的资源吗?
下一篇:星际迷航:奇异新世界(2022) 第一季/10集全/ 4K高清版本下载
回复

使用道具 举报

14

主题

1244

帖子

3722

积分

4K家园VIP

Rank: 9Rank: 9Rank: 9

积分
3722
发表于 2022-7-10 21:53:11 | 显示全部楼层
是爷们的娘们的都帮顶!大力支持
回复 支持 反对

使用道具 举报

4

主题

1635

帖子

4505

积分

4K家园VIP

Rank: 9Rank: 9Rank: 9

积分
4505
发表于 2022-7-11 00:31:40 | 显示全部楼层
都不知道说的啥
回复 支持 反对

使用道具 举报

56

主题

1493

帖子

4335

积分

4K家园VIP

Rank: 9Rank: 9Rank: 9

积分
4335
发表于 2022-7-11 01:49:54 | 显示全部楼层
我擦!我要沙发!
回复 支持 反对

使用道具 举报

5

主题

1499

帖子

4341

积分

4K家园VIP

Rank: 9Rank: 9Rank: 9

积分
4341
发表于 2022-7-11 01:57:02 | 显示全部楼层
支持,赞一个
回复 支持 反对

使用道具 举报

67

主题

1559

帖子

4495

积分

4K家园VIP

Rank: 9Rank: 9Rank: 9

积分
4495
发表于 2022-7-11 02:48:25 | 显示全部楼层
确实不错,顶先
回复 支持 反对

使用道具 举报

0

主题

132

帖子

315

积分

新手上路

Rank: 1

积分
315
发表于 2022-7-12 18:08:53 | 显示全部楼层
vxcccccccccccccccccccccccccccccccccccccc
xzxzxzxzxzxzxzxzxzxzxzxzxzxzxzxzxzxzc
[url=http://www.baidianfeng51.cn/]刘云涛[/url]
回复 支持 反对

使用道具 举报

0

主题

15

帖子

90

积分

新手上路

Rank: 1

积分
90
发表于 2022-8-1 14:34:37 | 显示全部楼层
谢谢分享!
回复

使用道具 举报

您需要登录后才可以回帖 登录 | 立即注册

本版积分规则

精彩图文
Archiver|手机版|TAG|Sitemap|新帖|专题|联系我们:邮箱: 4kjia.com@gmail.com   

4k家园   ©2019