星际迷航:奇异新世界(2022) 第一季/10集全/ 4K高清版本下载

[复制链接]

194

主题

217

帖子

2109

积分

版主

Rank: 7Rank: 7Rank: 7

积分
2109
 楼主| 发表于 2022-7-10 22:05:07 | 显示全部楼层 |阅读模式
p2870955100_副本.jpg

◎译  名 星际迷航:奇异新世界 第一季
◎片  名 Star Trek: Strange New Worlds Season 1
◎年  代 2022
◎产  地 美国
◎类  别 动作/科幻/冒险
◎语  言 英语
◎上映日期 2022-05-05(美国)
◎IMDb评分 8.2/10 from 17757 users
◎IMDb链接 https://www.imdb.com/title/tt12327578/
◎豆瓣评分 8.1/10 from 721 users
◎豆瓣链接 https://douban.com/subject/35069688/
◎导  演 阿齐瓦·高斯曼 Akiva Goldsman
◎编  剧 阿齐瓦·高斯曼 Akiva Goldsman / 艾里克斯·库兹曼 Alex Kurtzman / 詹妮·吕美特 Jenny Lumet
◎主  演 安松·蒙特 Anson Mount
       丽贝卡·罗梅恩 Rebecca Romijn
       克里斯蒂娜·钟 Christina Chong
       伊森·派克 Ethan Peck
       巴布斯·奥卢桑莫昆 Babs Olusanmokun
       安德烈·金 Andre Kim
       Rong Fu Rong Fu
       Prosha Hussein Prosha Hussein
       奥斯卡·莫雷诺 Oscar Moreno
       安吉拉·贝夏拉 Angela Besharah
       安德烈·卡洪 Andre Colquhoun
       索菲娅·韦伯斯特 Sophia Webster
       保罗·韦斯利 Paul Wesley



◎简  介


  “星际迷航”系列将推出新剧《星际迷航:奇异新世界》(Star Trek: Strange New Worlds),主角为Christopher Pike、Spock、Number One,这三人组的“发现号”衍生剧真的来了。

  本剧由《发现号》已登场的安松·蒙特、伊森·派克、丽贝卡·罗梅恩主演,聚焦Pike舰长掌管企业号之前,三人组探索星系中那些新世界的故事。依旧由艾里克斯·库兹曼把控,阿齐瓦·高斯曼担任首集编剧,开播日期尚未确定。

Video
ID : 1
Format : HEVC
Format/Info : High Efficiency Video Coding
Format profile : Main 10@L5@Main
HDR format : Dolby Vision, Version 1.0, dvhe.05.06, BL+RPU
Codec ID : V_MPEGH/ISO/HEVC
Duration : 1 h 2 min
Bit rate : 13.6 Mb/s
Width : 3 840 pixels
Height : 2 160 pixels
Display aspect ratio : 16:9
Frame rate mode : Constant
Frame rate : 23.976 (24000/1001) FPS
Color space : YUV
Chroma subsampling : 4:2:0 (Type 0)
Bit depth : 10 bits
Bits/(Pixel*Frame) : 0.068
Stream size : 5.94 GiB (97%)
Default : Yes
Forced : No
Color range : Full

Audio
ID : 2
Format : E-AC-3
Format/Info : Enhanced AC-3
Commercial name : Dolby Digital Plus
Codec ID : A_EAC3
Duration : 1 h 2 min
Bit rate mode : Constant
Bit rate : 192 kb/s
Channel(s) : 6 channels
Channel layout : L R C LFE Ls Rs
Sampling rate : 48.0 kHz
Frame rate : 31.250 FPS (1536 SPF)
Compression mode : Lossy
Stream size : 86.0 MiB (1%)
Language : English
Service kind : Complete Main
Default : Yes
Forced : No

Text
ID : 3
Format : UTF-8
Codec ID : S_TEXT/UTF8
Codec ID/Info : UTF-8 Plain Text
Title : English [SDH]
Language : English
Default : No
Forced : No


下载地址:

游客,如果您要查看本帖隐藏内容请回复

游客,如果您要查看本帖隐藏内容请回复

游客,如果您要查看本帖隐藏内容请回复

游客,如果您要查看本帖隐藏内容请回复




上一篇:天外来客 (2022) 第三季/10集全/ 4K高清版本下载
下一篇:外星生命 [简繁中字] (2019) 第一、二季全/ 4K高清版本下载
回复

使用道具 举报

0

主题

1347

帖子

4043

积分

4K家园VIP

Rank: 9Rank: 9Rank: 9

积分
4043
发表于 2022-7-10 22:05:33 | 显示全部楼层
回复 支持 反对

使用道具 举报

2

主题

255

帖子

3218

积分

中级会员

Rank: 4

积分
3218
发表于 2022-7-11 13:00:02 | 显示全部楼层
进来参观一个              
回复 支持 反对

使用道具 举报

0

主题

30

帖子

477

积分

4K家园VIP

Rank: 9Rank: 9Rank: 9

积分
477
发表于 2022-7-12 00:09:54 | 显示全部楼层
看看大片,支持一下
回复 支持 反对

使用道具 举报

0

主题

6

帖子

670

积分

4K家园VIP

Rank: 9Rank: 9Rank: 9

积分
670
发表于 2022-7-12 10:49:41 | 显示全部楼层
木有字幕啊
回复 支持 反对

使用道具 举报

56

主题

1554

帖子

4546

积分

4K家园VIP

Rank: 9Rank: 9Rank: 9

积分
4546
发表于 2022-7-16 05:19:40 | 显示全部楼层
元芳你怎么看?
回复 支持 反对

使用道具 举报

0

主题

1368

帖子

4118

积分

4K家园VIP

Rank: 9Rank: 9Rank: 9

积分
4118
发表于 2022-7-31 16:42:02 | 显示全部楼层
无论是不是沙发都得回复下
回复 支持 反对

使用道具 举报

39

主题

1455

帖子

4131

积分

4K家园VIP

Rank: 9Rank: 9Rank: 9

积分
4131
发表于 2022-8-2 12:10:07 | 显示全部楼层
支持,赞一个
回复 支持 反对

使用道具 举报

0

主题

2

帖子

19

积分

新手上路

Rank: 1

积分
19
发表于 2022-8-3 05:56:46 | 显示全部楼层
woyao
回复

使用道具 举报

0

主题

1702

帖子

4658

积分

4K家园VIP

Rank: 9Rank: 9Rank: 9

积分
4658
发表于 2022-8-8 16:50:48 | 显示全部楼层
学习下
回复 支持 反对

使用道具 举报

您需要登录后才可以回帖 登录 | 立即注册

本版积分规则

精彩图文
Archiver|手机版|TAG|Sitemap|新帖|专题|联系我们:邮箱: 4kjia.com@gmail.com   

4k家园   ©2019