[4K电影] 唐人街 [繁粤中字] / Chinatown (1974) 4K高清版本下载

[复制链接]

2163

主题

2306

帖子

1万

积分

超级版主

Rank: 8Rank: 8

积分
16861
 楼主| 发表于 2022-7-11 15:38:32 | 显示全部楼层 |阅读模式
本帖最后由 最爱4K哟 于 2022-7-11 15:39 编辑

QQ图片20220711152245_副本.png

◎译  名 唐人街
◎片  名 Chinatown
◎年  代 1974
◎产  地 美国
◎类  别 剧情 / 悬疑 / 惊悚 / 犯罪
◎语  言 英语 / 粤语 / 西班牙语
◎上映日期 1974-06-20(美国)◎IMDb评分 8.2/10 from 321747 users
◎IMDb链接 https://www.imdb.com/title/tt0071315/
◎豆瓣评分 8.4/10 (54967人评价)
◎豆瓣链接 https://movie.douban.com/subject/1293889/
◎片  长 130分钟
◎导  演 罗曼·波兰斯基 Roman Polanski
◎编  剧 罗伯特·汤 Robert Towne / 罗曼·波兰斯基 Roman Polanski
◎演  员 杰克·尼科尔森 Jack Nicholson
       费·唐纳薇 Faye Dunaway
       约翰·休斯顿 John Huston
       戴安·拉德 Diane Ladd
       罗曼·波兰斯基 Roman Polanski
       布鲁斯·格洛弗 Bruce Glover
       乔·马特尔 Joe Mantell
       罗伊·詹森 Roy Jenson
       吴汉章 James Hong
       约翰·席勒曼 John Hillerman
       佩里·洛佩兹 Perry Lopez
       罗伯特·埃文斯 Robert Evans
       杰瑞·高德史密斯 Jerry Goldsmith
       迈克·芬顿 Mike Fenton
       W·斯图尔特·坎贝尔 W. Stewart Campbell
       Vivienne Walker Vivienne Walker
       李·哈曼 Lee Harman
       苏珊·杰曼 Susan Germaine
       Hank Edds Hank Edds
       拉里·乔斯特 Larry Jost


◎简  介
  1937年的洛山矶唐人街,警员杰克(杰克?尼科尔森 Jack Nicholson 饰)因不满这里的黑暗,辞职当起了私家侦探。这天,一个自称莫拉雷太太的女子请杰克调查丈夫的外遇,杰克欣然接受。杰克发现莫拉雷原来是当地水利总工程师,正在为兴建水坝问题和当地农民争执。随后有人给 了杰克一些证明莫拉雷偷情的照片,隔天早上真正的莫拉雷太太却找上门来要求杰克停止调查莫拉雷。
事情变得越来越迷离,杰克决心追查下去……

◎获奖情况 (共11项)
  第47届奥斯卡金像奖 (1975)
  最佳影片(提名) 罗伯特·埃文斯
  最佳导演(提名) 罗曼·波兰斯基
  最佳男主角(提名) 杰克·尼科尔森
  最佳女主角(提名) 费·唐纳薇
  最佳原创剧本 罗伯特·汤
  最佳摄影(提名) 约翰·A·阿朗索
  最佳剪辑(提名) 萨姆?奥斯廷
  最佳音响(提名)
  最佳艺术指导(提名)
  最佳服装设计(提名) 安西娅·塞尔伯特
  剧情片最佳原创配乐(提名)杰瑞·高德史密斯
Video
ID : 1
Format : HEVC
Format/Info : High Efficiency Video Coding
Format profile : Main 10@L5@High
HDR format : Dolby Vision, Version 1.0, dvhe.05.06, BL+RPU
Codec ID : V_MPEGH/ISO/HEVC
Duration : 2 h 10 min
Bit rate : 24.8 Mb/s
Width : 3 828 pixels
Height : 1 620 pixels
Display aspect ratio : 2.35:1
Frame rate mode : Constant
Frame rate : 23.976 (24000/1001) FPS
Color space : YUV
Chroma subsampling : 4:2:0
Bit depth : 10 bits
Bits/(Pixel*Frame) : 0.167
Stream size : 22.6 GiB (77%)
Default : Yes
Forced : No

Audio #1
ID : 2
ID in the original source medium : 4352 (0x1100)
Format : MLP FBA
Format/Info : Meridian Lossless Packing FBA
Commercial name : Dolby TrueHD
Codec ID : A_TRUEHD
Duration : 2 h 10 min
Bit rate mode : Variable
Bit rate : 3 020 kb/s
Maximum bit rate : 4 668 kb/s
Channel(s) : 6 channels
Channel layout : L R C LFE Ls Rs
Sampling rate : 48.0 kHz
Frame rate : 1 200.000 FPS (40 SPF)
Bit depth : 24 bits
Compression mode : Lossless
Stream size : 2.75 GiB (9%)
Title : TrueHD 5.1
Language : English
Default : Yes
Forced : No
Original source medium : Blu-ray

Audio #2
ID : 3
Format : DTS XLL
Format/Info : Digital Theater Systems
Commercial name : DTS-HD Master Audio
Codec ID : A_DTS
Duration : 2 h 10 min
Bit rate mode : Variable
Bit rate : 3 489 kb/s
Channel(s) : 6 channels
Channel layout : C L R Ls Rs LFE
Sampling rate : 48.0 kHz
Frame rate : 93.750 FPS (512 SPF)
Bit depth : 24 bits
Compression mode : Lossless
Stream size : 3.18 GiB (11%)
Title : DTS-HD MA 5.1
Language : English
Default : No
Forced : No

Audio #3
ID : 4
ID in the original source medium : 4352 (0x1100)
Format : AC-3
Format/Info : Audio Coding 3
Commercial name : Dolby Digital
Codec ID : A_AC3
Duration : 2 h 10 min
Bit rate mode : Constant
Bit rate : 640 kb/s
Channel(s) : 6 channels
Channel layout : L R C LFE Ls Rs
Sampling rate : 48.0 kHz
Frame rate : 31.250 FPS (1536 SPF)
Compression mode : Lossy
Delay relative to video : 24 ms
Stream size : 597 MiB (2%)
Title : DD 5.1
Language : English
Service kind : Complete Main
Default : No
Forced : No
Original source medium : Blu-ray

Audio #4
ID : 5
Format : AC-3
Format/Info : Audio Coding 3
Commercial name : Dolby Digital
Codec ID : A_AC3
Duration : 2 h 10 min
Bit rate mode : Constant
Bit rate : 384 kb/s
Channel(s) : 6 channels
Channel layout : L R C LFE Ls Rs
Sampling rate : 48.0 kHz
Frame rate : 31.250 FPS (1536 SPF)
Compression mode : Lossy
Stream size : 358 MiB (1%)
Language : English
Service kind : Complete Main
Default : No
Forced : No

Text #1
ID : 6
Format : UTF-8
Codec ID : S_TEXT/UTF8
Codec ID/Info : UTF-8 Plain Text
Duration : 2 h 7 min
Bit rate : 56 b/s
Frame rate : 0.235 FPS
Count of elements : 1791
Stream size : 52.3 KiB (0%)
Title : English CC
Language : English
Default : Yes
Forced : No

Text #2
ID : 7
Format : UTF-8
Codec ID : S_TEXT/UTF8
Codec ID/Info : UTF-8 Plain Text
Duration : 2 h 6 min
Bit rate : 64 b/s
Frame rate : 0.122 FPS
Count of elements : 924
Stream size : 59.9 KiB (0%)
Title : Arabic
Language : Arabic
Default : No
Forced : No

Text #3
ID : 8
Format : UTF-8
Codec ID : S_TEXT/UTF8
Codec ID/Info : UTF-8 Plain Text
Duration : 2 h 6 min
Bit rate : 36 b/s
Frame rate : 0.123 FPS
Count of elements : 933
Stream size : 34.2 KiB (0%)
Title : 中文(繁体)
Language : Chinese
Default : No
Forced : No


Text #4
ID : 9
Format : UTF-8
Codec ID : S_TEXT/UTF8
Codec ID/Info : UTF-8 Plain Text
Duration : 2 h 6 min
Bit rate : 44 b/s
Frame rate : 0.178 FPS
Count of elements : 1347
Stream size : 41.0 KiB (0%)
Title : Danish
Language : Danish
Default : No
Forced : No

Text #5
ID : 10
Format : UTF-8
Codec ID : S_TEXT/UTF8
Codec ID/Info : UTF-8 Plain Text
Duration : 2 h 6 min
Bit rate : 44 b/s
Frame rate : 0.124 FPS
Count of elements : 937
Stream size : 40.8 KiB (0%)
Title : German
Language : German
Default : No
Forced : No

Text #6
ID : 11
Format : UTF-8
Codec ID : S_TEXT/UTF8
Codec ID/Info : UTF-8 Plain Text
Duration : 2 h 8 min
Bit rate : 44 b/s
Frame rate : 0.179 FPS
Count of elements : 1383
Stream size : 42.0 KiB (0%)
Title : Spanish Latin American
Language : Spanish
Default : No
Forced : No

Text #7
ID : 12
Format : UTF-8
Codec ID : S_TEXT/UTF8
Codec ID/Info : UTF-8 Plain Text
Duration : 2 h 6 min
Bit rate : 46 b/s
Frame rate : 0.177 FPS
Count of elements : 1342
Stream size : 43.3 KiB (0%)
Title : Finnish
Language : Finnish
Default : No
Forced : No

Text #8
ID : 13
Format : UTF-8
Codec ID : S_TEXT/UTF8
Codec ID/Info : UTF-8 Plain Text
Duration : 2 h 6 min
Bit rate : 40 b/s
Frame rate : 0.167 FPS
Count of elements : 1266
Stream size : 37.9 KiB (0%)
Title : French European
Language : French
Default : No
Forced : No

Text #9
ID : 14
Format : UTF-8
Codec ID : S_TEXT/UTF8
Codec ID/Info : UTF-8 Plain Text
Duration : 2 h 6 min
Bit rate : 41 b/s
Frame rate : 0.162 FPS
Count of elements : 1230
Stream size : 38.1 KiB (0%)
Title : Dutch
Language : Dutch
Default : No
Forced : No

Text #10
ID : 15
Format : UTF-8
Codec ID : S_TEXT/UTF8
Codec ID/Info : UTF-8 Plain Text
Duration : 2 h 6 min
Bit rate : 43 b/s
Frame rate : 0.180 FPS
Count of elements : 1362
Stream size : 39.9 KiB (0%)
Title : Norwegian
Language : Norwegian
Default : No
Forced : No

Text #11
ID : 16
Format : UTF-8
Codec ID : S_TEXT/UTF8
Codec ID/Info : UTF-8 Plain Text
Duration : 2 h 6 min
Bit rate : 48 b/s
Frame rate : 0.188 FPS
Count of elements : 1424
Stream size : 44.9 KiB (0%)
Title : Polish
Language : Polish
Default : No
Forced : No

Text #12
ID : 17
Format : UTF-8
Codec ID : S_TEXT/UTF8
Codec ID/Info : UTF-8 Plain Text
Duration : 2 h 6 min
Bit rate : 45 b/s
Frame rate : 0.181 FPS
Count of elements : 1369
Stream size : 42.3 KiB (0%)
Title : Portuguese Brazilian
Language : Portuguese
Default : No
Forced : No

Text #13
ID : 18
Format : UTF-8
Codec ID : S_TEXT/UTF8
Codec ID/Info : UTF-8 Plain Text
Duration : 2 h 6 min
Bit rate : 86 b/s
Frame rate : 0.239 FPS
Count of elements : 1809
Stream size : 80.5 KiB (0%)
Title : Russian
Language : Russian
Default : No
Forced : No

Text #14
ID : 19
Format : UTF-8
Codec ID : S_TEXT/UTF8
Codec ID/Info : UTF-8 Plain Text
Duration : 2 h 6 min
Bit rate : 42 b/s
Frame rate : 0.158 FPS
Count of elements : 1201
Stream size : 39.2 KiB (0%)
Title : Swedish
Language : Swedish
Default : No
Forced : No

Text #15
ID : 20
Format : UTF-8
Codec ID : S_TEXT/UTF8
Codec ID/Info : UTF-8 Plain Text
Duration : 2 h 6 min
Bit rate : 54 b/s
Frame rate : 0.210 FPS
Count of elements : 1596
Stream size : 50.3 KiB (0%)
Title : Turkish
Language : Turkish
Default : No
Forced : No

Text #16
ID : 21
Format : UTF-8
Codec ID : S_TEXT/UTF8
Codec ID/Info : UTF-8 Plain Text
Duration : 2 h 6 min
Bit rate : 37 b/s
Frame rate : 0.123 FPS
Count of elements : 933
Stream size : 34.3 KiB (0%)
Title : 中文(粤语)
Language : Chinese
Default : No
Forced : No


Menu
00:00:00.000 : en:Studio Logos
00:00:09.000 : en:Curly's Lament, Opening Credits
00:02:58.000 : en:Studio Logo
00:03:06.000 : en:Curly's Lament, Opening Credits
00:03:42.000 : en:Jake Is Hired to Investigate a Spouse
00:05:45.000 : en:Jake Sits In on a Town Hall Meeting
00:08:05.000 : en:Jake Spies on Mulwray
00:09:33.000 : en:Jake Follows Mulwray
00:10:06.000 : en:Jake Observes Mulwray
00:11:47.000 : en:Jake Leaves the Beach
00:12:45.000 : en:Jake Inspects Information He Gathered
00:14:52.000 : en:Jake and His Associate Take Pictures of Mulwray
00:15:32.000 : en:Jake Takes More Pictures of Mulwray
00:16:21.000 : en:Jake Confronts a Banker
00:17:48.000 : en:An Unexpected Visitor Reveals Herself
00:20:37.000 : en:Jake Snoops Around
00:23:47.000 : en:Jake Runs into Mulvihill
00:24:40.000 : en:Jake Goes to Evelyn's House
00:26:11.000 : en:Evelyn Arrives
00:30:48.000 : en:Jake Tries to Find Mulwray
00:33:26.000 : en:Evelyn Identifies the Body
00:35:35.000 : en:Jake Walks Evelyn to Her Car
00:36:10.000 : en:Jake Talks to the Coroner
00:37:59.000 : en:Jake Inspects the River
00:40:04.000 : en:Jake Is Confronted
00:43:05.000 : en:Jake Gets a Call
00:45:12.000 : en:Jake Meets Evelyn for Lunch
00:49:33.000 : en:Jake Tells Off Evelyn
00:50:43.000 : en:Jake Discovers Something
00:54:05.000 : en:Jake Asks Yelburton Some Questions
00:56:48.000 : en:Evelyn Pays Jake a Surprise Visit
00:59:58.000 : en:Jake Visits Noah
01:01:04.000 : en:Jake Talks to Noah
01:04:55.000 : en:Noah Hires Jake to Find Mulwray's Lover
01:06:29.000 : en:Jake Gets Information on the Orange Groves
01:08:55.000 : en:Jake Investigates a Farm
01:12:38.000 : en:Evelyn Picks Jake Up
01:13:13.000 : en:Jake Explains the Situation
01:14:47.000 : en:Jake and Evelyn Investigates Jasper's Purchase
01:16:47.000 : en:Jake Questions the Tenants
01:18:54.000 : en:Jake Fights His Way Out
01:20:22.000 : en:Evelyn and Jake Make Small Talk
01:22:14.000 : en:Evelyn Treats Jake's Nose
01:23:52.000 : en:Evelyn and Jake Share a Moment
01:29:25.000 : en:Jake Follows Evelyn
01:30:47.000 : en:Jake Spies on Evelyn
01:32:04.000 : en:Jake Extracts Information from Evelyn
01:35:31.000 : en:Jake Tries to Get Some Sleep
01:37:41.000 : en:Jake Visits Ida
01:40:33.000 : en:Jake Talks to Escobar and Loach
01:43:44.000 : en:Jake Shows Loach and Escobar the Pipe
01:44:54.000 : en:Jake Goes to Talk to Evelyn
01:47:13.000 : en:Jake Tries to Put the Pieces Together
01:53:59.000 : en:Jake Calls His Associates to Explain His Plan
01:55:14.000 : en:Jake Lies to Loach and Escobar
01:56:06.000 : en:Jake Convinces Escobar to Let Him Go in Alone
01:57:01.000 : en:Jake Asks Curly to Help Him Escape
01:57:56.000 : en:Jake and Curly Escape
01:59:02.000 : en:Jake Sends Curly Off with Evelyn's Luggage
01:59:55.000 : en:Jake Calls Noah
02:03:43.000 : en:Jake Goes to Chinatown with Noah
02:04:33.000 : en:Escobar Arrests Jake and His Associates
02:05:30.000 : en:Noah Tries to Talk to Katherine
02:09:21.000 : en:End Credits

资源速度为零或资源敏感被和谐时,推荐使用qBittorrent等下载软件,有条件的推荐115更好的下载软件!

下载地址:


游客,如果您要查看本帖隐藏内容请回复

游客,如果您要查看本帖隐藏内容请回复

游客,如果您要查看本帖隐藏内容请回复



相关其他4K高清版本链接:唐人街 / Chinatown (1974) 4K高清下载/10.14GB






上一篇:大卫·科波菲尔的个人史 / David Copperfield (2019) 4K高清版本下载
下一篇:星际旅行8:第一类接触 (1996) 4K高清版本下载
回复

使用道具 举报

5

主题

1500

帖子

4344

积分

4K家园VIP

Rank: 9Rank: 9Rank: 9

积分
4344
发表于 2022-7-11 15:38:36 | 显示全部楼层
OMG!介是啥东东!!!
回复 支持 反对

使用道具 举报

53

主题

1245

帖子

3803

积分

4K家园VIP

Rank: 9Rank: 9Rank: 9

积分
3803
发表于 2022-7-11 15:49:25 | 显示全部楼层
围观 围观 沙发在哪里!!!
回复 支持 反对

使用道具 举报

45

主题

1485

帖子

4303

积分

4K家园VIP

Rank: 9Rank: 9Rank: 9

积分
4303
发表于 2022-7-11 15:51:35 | 显示全部楼层
顶顶更健康
回复 支持 反对

使用道具 举报

0

主题

2

帖子

9

积分

新手上路

Rank: 1

积分
9
发表于 2022-7-11 16:09:08 | 显示全部楼层
感谢分享!感谢分享!感谢分享!感谢分享!感谢分享!
回复 支持 反对

使用道具 举报

1

主题

1272

帖子

3832

积分

4K家园VIP

Rank: 9Rank: 9Rank: 9

积分
3832
发表于 2022-7-11 17:00:55 来自手机 | 显示全部楼层
都不知道说的啥
回复 支持 反对

使用道具 举报

58

主题

1568

帖子

4514

积分

4K家园VIP

Rank: 9Rank: 9Rank: 9

积分
4514
发表于 2022-7-11 17:17:16 | 显示全部楼层
LZ帖子不给力,勉强给回复下吧
回复 支持 反对

使用道具 举报

0

主题

433

帖子

2643

积分

注册会员

Rank: 2

积分
2643
发表于 2022-7-12 12:36:29 | 显示全部楼层
感谢分享
回复

使用道具 举报

您需要登录后才可以回帖 登录 | 立即注册

本版积分规则

精彩图文
Archiver|手机版|TAG|Sitemap|新帖|专题|联系我们:邮箱: 4kjia.com@gmail.com   

4k家园   ©2019