[4K电影] 亲爱的匿名者[简繁中字] / Anónima (2021) 4K高清版本下载

[复制链接]

2163

主题

2306

帖子

1万

积分

超级版主

Rank: 8Rank: 8

积分
16861
 楼主| 发表于 2022-7-15 11:08:40 | 显示全部楼层 |阅读模式
本帖最后由 最爱4K哟 于 2022-7-15 11:11 编辑

QQ图片20220715105916_副本.png

◎译  名 亲爱的匿名者/Anonymously Yours
◎片  名 Anónima
◎年  代 2021
◎产  地 墨西哥
◎类  别 剧情/爱情
◎语  言 西班牙语
◎上映日期 2021-12-10(墨西哥)
◎IMDb评分 5.7/10 from 1690 users
◎IMDb链接 https://www.imdb.com/title/tt16088568/
◎豆瓣评分 6.0/10 from 132 users
◎豆瓣链接 https://movie.douban.com/subject/35683303/
◎片  长 100分钟
◎导  演 玛利亚·托雷斯 Maria Torres
◎演  员 哈罗德·阿祖拉 Harold Azuara
                  安妮·卡贝洛 Annie Cabello
                  埃斯特菲·梅雷莱斯 Estefi Merelles
                  艾丽西亚·维莱兹 Alicia Vélez



◎简  介

  意外短信促成了一段网上友谊,瓦莱和亚历克斯开始互生情愫,却不知道两人早已在现实生活中相遇
Video
ID : 1
Format : HEVC
Format/Info : High Efficiency Video Coding
Format profile : Main 10@L5@Main
HDR format : Dolby Vision, Version 1.0, dvhe.05.06, BL+RPU
Codec ID : dvhe
Codec ID/Info : High Efficiency Video Coding with Dolby Vision
Duration : 1 h 41 min
Bit rate : 15.6 Mb/s
Width : 3 840 pixels
Height : 2 160 pixels
Display aspect ratio : 16:9
Frame rate mode : Constant
Frame rate : 23.976 (24000/1001) FPS
Color space : YUV
Chroma subsampling : 4:2:0
Bit depth : 10 bits
Bits/(Pixel*Frame) : 0.079
Stream size : 11.1 GiB (96%)
Default : Yes
Alternate group : 1
Encoded date : UTC 2022-07-14 16:52:29
Tagged date : UTC 2022-07-14 16:53:59
Color range : Full
Codec configuration box : hvcC+dvcC

Audio
ID : 2
Format : E-AC-3
Format/Info : Enhanced AC-3
Commercial name : Dolby Digital Plus
Codec ID : ec-3
Duration : 1 h 41 min
Bit rate mode : Constant
Bit rate : 640 kb/s
Maximum bit rate : 676 kb/s
Channel(s) : 6 channels
Channel layout : L R C LFE Ls Rs
Sampling rate : 48.0 kHz
Frame rate : 31.250 FPS (1536 SPF)
Compression mode : Lossy
Stream size : 464 MiB (4%)
Title : English
Language : English
Service kind : Complete Main
Default : Yes
Alternate group : 1
Tagged date : UTC 2022-07-14 16:53:59

Text #1
ID : 3
Format : Timed Text
Codec ID : tx3g
Duration : 1 h 37 min
Bit rate mode : Variable
Bit rate : 64 b/s
Frame rate : 0.539 FPS
Stream size : 45.4 KiB (0%)
Title : English
Language : English
Forced : No
Encoded date : UTC 2022-07-14 16:53:52
Tagged date : UTC 2022-07-14 16:53:59

Text #2
ID : 4
Format : Timed Text
Codec ID : tx3g
Duration : 1 h 38 min
Bit rate mode : Variable
Bit rate : 82 b/s
Frame rate : 0.619 FPS
Stream size : 59.1 KiB (0%)
Title : English
Language : English
Forced : No
Encoded date : UTC 2022-07-14 16:53:52
Tagged date : UTC 2022-07-14 16:53:59

Text #3
ID : 5
Format : Timed Text
Codec ID : tx3g
Duration : 1 h 40 min
Bit rate mode : Variable
Bit rate : 107 b/s
Frame rate : 0.542 FPS
Stream size : 79.0 KiB (0%)
Title : Arabic
Language : Arabic
Forced : No
Encoded date : UTC 2022-07-14 16:53:52
Tagged date : UTC 2022-07-14 16:53:59

Text #4
ID : 6
Format : Timed Text
Codec ID : tx3g
Duration : 1 h 40 min
Bit rate mode : Variable
Bit rate : 72 b/s
Frame rate : 0.547 FPS
Stream size : 53.1 KiB (0%)
Title : 中文(简体)
Language : 中文
Forced : No
Encoded date : UTC 2022-07-14 16:53:52
Tagged date : UTC 2022-07-14 16:53:59

Text #5
ID : 7
Format : Timed Text
Codec ID : tx3g
Duration : 1 h 40 min
Bit rate mode : Variable
Bit rate : 67 b/s
Frame rate : 0.545 FPS
Stream size : 49.1 KiB (0%)
Title : 中文(繁体)
Language : 中文
Forced : No
Encoded date : UTC 2022-07-14 16:53:53
Tagged date : UTC 2022-07-14 16:53:59

Text #6
ID : 8
Format : Timed Text
Codec ID : tx3g
Duration : 1 h 40 min
Bit rate mode : Variable
Bit rate : 56 b/s
Frame rate : 0.480 FPS
Stream size : 41.6 KiB (0%)
Title : Croatian
Language : Croatian
Forced : No
Encoded date : UTC 2022-07-14 16:53:53
Tagged date : UTC 2022-07-14 16:53:59

Text #7
ID : 9
Format : Timed Text
Codec ID : tx3g
Duration : 1 h 40 min
Bit rate mode : Variable
Bit rate : 61 b/s
Frame rate : 0.543 FPS
Stream size : 45.0 KiB (0%)
Title : Czech
Language : Czech
Forced : No
Encoded date : UTC 2022-07-14 16:53:53
Tagged date : UTC 2022-07-14 16:53:59

Text #8
ID : 10
Format : Timed Text
Codec ID : tx3g
Duration : 1 h 40 min
Bit rate mode : Variable
Bit rate : 60 b/s
Frame rate : 0.484 FPS
Stream size : 43.9 KiB (0%)
Title : Danish
Language : Danish
Forced : No
Encoded date : UTC 2022-07-14 16:53:53
Tagged date : UTC 2022-07-14 16:53:59

Text #9
ID : 11
Format : Timed Text
Codec ID : tx3g
Duration : 1 h 37 min
Bit rate mode : Variable
Bit rate : 61 b/s
Frame rate : 0.500 FPS
Stream size : 43.6 KiB (0%)
Title : Dutch
Language : Dutch
Forced : No
Encoded date : UTC 2022-07-14 16:53:53
Tagged date : UTC 2022-07-14 16:53:59

Text #10
ID : 12
Format : Timed Text
Codec ID : tx3g
Duration : 1 h 40 min
Bit rate mode : Variable
Bit rate : 63 b/s
Frame rate : 0.536 FPS
Stream size : 46.7 KiB (0%)
Title : Finnish
Language : Finnish
Forced : No
Encoded date : UTC 2022-07-14 16:53:54
Tagged date : UTC 2022-07-14 16:53:59

Text #11
ID : 13
Format : Timed Text
Codec ID : tx3g
Duration : 1 h 40 min
Bit rate mode : Variable
Bit rate : 64 b/s
Frame rate : 0.519 FPS
Stream size : 47.4 KiB (0%)
Title : French
Language : French
Forced : No
Encoded date : UTC 2022-07-14 16:53:54
Tagged date : UTC 2022-07-14 16:53:59

Text #12
ID : 14
Format : Timed Text
Codec ID : tx3g
Duration : 1 h 40 min
Bit rate mode : Variable
Bit rate : 65 b/s
Frame rate : 0.504 FPS
Stream size : 48.2 KiB (0%)
Title : German
Language : German
Forced : No
Encoded date : UTC 2022-07-14 16:53:54
Tagged date : UTC 2022-07-14 16:53:59

Text #13
ID : 15
Format : Timed Text
Codec ID : tx3g
Duration : 1 h 40 min
Bit rate mode : Variable
Bit rate : 99 b/s
Frame rate : 0.512 FPS
Stream size : 72.9 KiB (0%)
Title : Greek
Language : Greek
Forced : No
Encoded date : UTC 2022-07-14 16:53:54
Tagged date : UTC 2022-07-14 16:53:59

Text #14
ID : 16
Format : Timed Text
Codec ID : tx3g
Duration : 1 h 40 min
Bit rate mode : Variable
Bit rate : 103 b/s
Frame rate : 0.495 FPS
Stream size : 75.6 KiB (0%)
Title : Hebrew
Language : Hebrew
Forced : No
Encoded date : UTC 2022-07-14 16:53:54
Tagged date : UTC 2022-07-14 16:53:59

Text #15
ID : 17
Format : Timed Text
Codec ID : tx3g
Duration : 1 h 40 min
Bit rate mode : Variable
Bit rate : 59 b/s
Frame rate : 0.507 FPS
Stream size : 43.6 KiB (0%)
Title : Hungarian
Language : Hungarian
Forced : No
Encoded date : UTC 2022-07-14 16:53:54
Tagged date : UTC 2022-07-14 16:53:59

Text #16
ID : 18
Format : Timed Text
Codec ID : tx3g
Duration : 1 h 37 min
Bit rate mode : Variable
Bit rate : 66 b/s
Frame rate : 0.544 FPS
Stream size : 46.9 KiB (0%)
Title : Indonesian
Language : Indonesian
Forced : No
Encoded date : UTC 2022-07-14 16:53:55
Tagged date : UTC 2022-07-14 16:53:59

Text #17
ID : 19
Format : Timed Text
Codec ID : tx3g
Duration : 1 h 40 min
Bit rate mode : Variable
Bit rate : 58 b/s
Frame rate : 0.502 FPS
Stream size : 43.1 KiB (0%)
Title : Italian
Language : Italian
Forced : No
Encoded date : UTC 2022-07-14 16:53:55
Tagged date : UTC 2022-07-14 16:53:59

Text #18
ID : 20
Format : Timed Text
Codec ID : tx3g
Duration : 1 h 40 min
Bit rate mode : Variable
Bit rate : 56 b/s
Frame rate : 0.471 FPS
Stream size : 41.6 KiB (0%)
Title : Japanese
Language : Japanese
Forced : No
Encoded date : UTC 2022-07-14 16:53:55
Tagged date : UTC 2022-07-14 16:53:59

Text #19
ID : 21
Format : Timed Text
Codec ID : tx3g
Duration : 1 h 40 min
Bit rate mode : Variable
Bit rate : 82 b/s
Frame rate : 0.546 FPS
Stream size : 60.4 KiB (0%)
Title : Korean
Language : Korean
Forced : No
Encoded date : UTC 2022-07-14 16:53:55
Tagged date : UTC 2022-07-14 16:53:59

Text #20
ID : 22
Format : Timed Text
Codec ID : tx3g
Duration : 1 h 40 min
Bit rate mode : Variable
Bit rate : 59 b/s
Frame rate : 0.501 FPS
Stream size : 43.5 KiB (0%)
Title : Malay
Language : Malay
Forced : No
Encoded date : UTC 2022-07-14 16:53:55
Tagged date : UTC 2022-07-14 16:53:59

Text #21
ID : 23
Format : Timed Text
Codec ID : tx3g
Duration : 1 h 40 min
Bit rate mode : Variable
Bit rate : 60 b/s
Frame rate : 0.514 FPS
Stream size : 43.8 KiB (0%)
Title : Norwegian
Language : Norwegian Bokmal
Forced : No
Encoded date : UTC 2022-07-14 16:53:56
Tagged date : UTC 2022-07-14 16:53:59

Text #22
ID : 24
Format : Timed Text
Codec ID : tx3g
Duration : 1 h 40 min
Bit rate mode : Variable
Bit rate : 60 b/s
Frame rate : 0.530 FPS
Stream size : 44.4 KiB (0%)
Title : Polish
Language : Polish
Forced : No
Encoded date : UTC 2022-07-14 16:53:56
Tagged date : UTC 2022-07-14 16:53:59

Text #23
ID : 25
Format : Timed Text
Codec ID : tx3g
Duration : 1 h 40 min
Bit rate mode : Variable
Bit rate : 61 b/s
Frame rate : 0.505 FPS
Stream size : 44.7 KiB (0%)
Title : Portuguese
Language : Portuguese
Forced : No
Encoded date : UTC 2022-07-14 16:53:56
Tagged date : UTC 2022-07-14 16:53:59

Text #24
ID : 26
Format : Timed Text
Codec ID : tx3g
Duration : 1 h 40 min
Bit rate mode : Variable
Bit rate : 70 b/s
Frame rate : 0.532 FPS
Stream size : 51.5 KiB (0%)
Title : Romanian
Language : Romanian
Forced : No
Encoded date : UTC 2022-07-14 16:53:56
Tagged date : UTC 2022-07-14 16:53:59

Text #25
ID : 27
Format : Timed Text
Codec ID : tx3g
Duration : 1 h 40 min
Bit rate mode : Variable
Bit rate : 100 b/s
Frame rate : 0.513 FPS
Stream size : 73.6 KiB (0%)
Title : Russian
Language : Russian
Forced : No
Encoded date : UTC 2022-07-14 16:53:56
Tagged date : UTC 2022-07-14 16:53:59

Text #26
ID : 28
Format : Timed Text
Codec ID : tx3g
Duration : 1 h 40 min
Bit rate mode : Variable
Bit rate : 84 b/s
Frame rate : 0.625 FPS
Stream size : 61.5 KiB (0%)
Title : Spanish-EU
Language : Spanish
Forced : No
Encoded date : UTC 2022-07-14 16:53:56
Tagged date : UTC 2022-07-14 16:53:59

Text #27
ID : 29
Format : Timed Text
Codec ID : tx3g
Duration : 1 h 40 min
Bit rate mode : Variable
Bit rate : 63 b/s
Frame rate : 0.411 FPS
Stream size : 46.8 KiB (0%)
Title : Swedish
Language : Swedish
Forced : No
Encoded date : UTC 2022-07-14 16:53:56
Tagged date : UTC 2022-07-14 16:53:59

Text #28
ID : 30
Format : Timed Text
Codec ID : tx3g
Duration : 1 h 40 min
Bit rate mode : Variable
Bit rate : 162 b/s
Frame rate : 0.546 FPS
Stream size : 119 KiB (0%)
Title : Thai
Language : Thai
Forced : No
Encoded date : UTC 2022-07-14 16:53:57
Tagged date : UTC 2022-07-14 16:53:59

Text #29
ID : 31
Format : Timed Text
Codec ID : tx3g
Duration : 1 h 40 min
Bit rate mode : Variable
Bit rate : 64 b/s
Frame rate : 0.484 FPS
Stream size : 47.2 KiB (0%)
Title : Turkish
Language : Turkish
Forced : No
Encoded date : UTC 2022-07-14 16:53:57
Tagged date : UTC 2022-07-14 16:53:59

Text #30
ID : 32
Format : Timed Text
Codec ID : tx3g
Duration : 1 h 40 min
Bit rate mode : Variable
Bit rate : 94 b/s
Frame rate : 0.545 FPS
Stream size : 69.2 KiB (0%)
Title : Ukrainian
Language : Ukrainian
Forced : No
Encoded date : UTC 2022-07-14 16:53:57
Tagged date : UTC 2022-07-14 16:53:59

Text #31
ID : 33
Format : Timed Text
Codec ID : tx3g
Duration : 1 h 40 min
Bit rate mode : Variable
Bit rate : 88 b/s
Frame rate : 0.465 FPS
Stream size : 64.5 KiB (0%)
Title : Vietnamese
Language : Vietnamese
Forced : No
Encoded date : UTC 2022-07-14 16:53:59
Tagged date : UTC 2022-07-14 16:53:59

资源速度为零或资源敏感被和谐时,推荐使用qBittorrent等下载软件,有条件的推荐115更好的下载软件!

下载地址:
游客,如果您要查看本帖隐藏内容请回复

游客,如果您要查看本帖隐藏内容请回复

游客,如果您要查看本帖隐藏内容请回复





上一篇:光年正传 / Lightyear (2022) 4K高清版本下载
下一篇:厄运假期[简体中字] / Beckett (2021) 4K高清版本下载
回复

使用道具 举报

2

主题

1351

帖子

4077

积分

4K家园VIP

Rank: 9Rank: 9Rank: 9

积分
4077
发表于 2022-7-15 11:08:45 | 显示全部楼层
为保住菊花,这个一定得回复!
回复 支持 反对

使用道具 举报

49

主题

1548

帖子

4476

积分

4K家园VIP

Rank: 9Rank: 9Rank: 9

积分
4476
发表于 2022-7-15 11:26:10 | 显示全部楼层
顶顶更健康
回复 支持 反对

使用道具 举报

3

主题

1310

帖子

3952

积分

4K家园VIP

Rank: 9Rank: 9Rank: 9

积分
3952
发表于 2022-7-15 15:58:02 | 显示全部楼层
沙发???
回复 支持 反对

使用道具 举报

1

主题

1377

帖子

4149

积分

4K家园VIP

Rank: 9Rank: 9Rank: 9

积分
4149
发表于 2022-7-15 17:07:02 来自手机 | 显示全部楼层
占坑编辑ing
回复 支持 反对

使用道具 举报

3

主题

1392

帖子

4008

积分

4K家园VIP

Rank: 9Rank: 9Rank: 9

积分
4008
发表于 2022-7-15 21:21:59 | 显示全部楼层
学习下
回复 支持 反对

使用道具 举报

您需要登录后才可以回帖 登录 | 立即注册

本版积分规则

精彩图文
Archiver|手机版|TAG|Sitemap|新帖|专题|联系我们:邮箱: 4kjia.com@gmail.com   

4k家园   ©2019