[4K电影] 惊天营救 [简繁中字] / Extraction (2020) 4K高清版本下载

[复制链接]

2163

主题

2306

帖子

1万

积分

超级版主

Rank: 8Rank: 8

积分
16861
 楼主| 发表于 2022-7-15 13:25:26 | 显示全部楼层 |阅读模式
QQ图片20220715131858_副本.png

◎译  名 惊天营救/极限营救/达卡/Dhaka/Out of the Fire
◎片  名 Extraction
◎年  代 2020
◎产  地 美国
◎类  别 动作/惊悚/犯罪
◎语  言 英语/印地语/孟加拉语
◎上映日期 2020-04-24(美国)
◎IMDb评分  6.7/10 from 195374 users
◎IMDb链接  https://www.imdb.com/title/tt8936646/
◎豆瓣评分 7.2/10 from 84406 users
◎豆瓣链接 https://movie.douban.com/subject/30314127/
◎导  演 山姆·哈格雷夫 Sam Hargrave
◎编  剧 乔·罗素 Joe Russo / 安德·帕克斯 Ande Parks / 安东尼·罗素 Anthony Russo
◎主  演 克里斯·海姆斯沃斯 Chris Hemsworth
       大卫·哈伯 David Harbour
       格什菲·法拉哈尼 Golshifteh Farahani
       兰迪普·弘达 Randeep Hooda
       克里斯·贾伊·阿历克斯 Chris Jai Alex
       潘卡·特里帕蒂 Pankaj Tripathi
       马克·多纳托 Marc Donato
       海斯·威尔弗德 Hays Wellford
       拉亚·坎普贝尔 Rayna Campbell
       鲁德赫拉什·贾斯瓦尔 Rudhraksh Jaiswal
       普里延苏·潘尤利 Priyanshu Painyuli


◎简  介


  泰勒·雷克(克里斯·海姆斯沃斯饰)是一名无所畏惧的黑市雇佣兵,一无所有的他奉命营救入狱的黑帮大佬被绑架的儿子。但是在充斥着武器交易商和毒贩的阴暗地下世界中,本就致命的任务更是难以完成,并彻底地改变了雷克和男孩的命运。

◎获奖情况

  第19届美国视觉效果协会奖(2021)
  最佳电影辅助视觉效果(提名)

  第46届美国人民选择奖(2020)
  年度电影男明星
  年度动作电影明星
Video
ID : 1
Format : HEVC
Format/Info : High Efficiency Video Coding
Format profile : Main 10@L5@Main
HDR format : Dolby Vision, Version 1.0, dvhe.05.06, BL+RPU
Codec ID : dvhe
Codec ID/Info : High Efficiency Video Coding with Dolby Vision
Duration : 1 h 57 min
Bit rate : 15.8 Mb/s
Width : 3 840 pixels
Height : 2 160 pixels
Display aspect ratio : 16:9
Frame rate mode : Constant
Frame rate : 24.000 FPS
Color space : YUV
Chroma subsampling : 4:2:0
Bit depth : 10 bits
Bits/(Pixel*Frame) : 0.079
Stream size : 12.9 GiB (95%)
Default : Yes
Alternate group : 1
Encoded date : UTC 2022-07-14 15:54:21
Tagged date : UTC 2022-07-14 15:56:26
Color range : Full
Codec configuration box : hvcC+dvcC

Audio
ID : 2
Format : E-AC-3 JOC
Format/Info : Enhanced AC-3 with Joint Object Coding
Commercial name : Dolby Digital Plus with Dolby Atmos
Codec ID : ec-3
Duration : 1 h 57 min
Bit rate mode : Constant
Bit rate : 768 kb/s
Maximum bit rate : 811 kb/s
Channel(s) : 6 channels
Channel layout : L R C LFE Ls Rs
Sampling rate : 48.0 kHz
Frame rate : 31.250 FPS (1536 SPF)
Compression mode : Lossy
Stream size : 646 MiB (5%)
Title : English
Language : English
Service kind : Complete Main
Default : Yes
Alternate group : 1
Tagged date : UTC 2022-07-14 15:56:26
Complexity index : Not present / 16
Number of dynamic objects : 15
Bed channel count : 1 channel
Bed channel configuration : LFE

Text #1
ID : 3
Format : Timed Text
Codec ID : tx3g
Duration : 1 h 41 min
Bit rate mode : Variable
Bit rate : 37 b/s
Frame rate : 0.300 FPS
Stream size : 27.2 KiB (0%)
Title : English
Language : English
Forced : No
Encoded date : UTC 2022-07-14 15:56:24
Tagged date : UTC 2022-07-14 15:56:26

Text #2
ID : 4
Format : Timed Text
Codec ID : tx3g
Duration : 1 h 55 min
Bit rate mode : Variable
Bit rate : 38 b/s
Frame rate : 0.197 FPS
Stream size : 32.2 KiB (0%)
Title : Arabic
Language : Arabic
Forced : No
Encoded date : UTC 2022-07-14 15:56:24
Tagged date : UTC 2022-07-14 15:56:26

Text #3
ID : 5
Format : Timed Text
Codec ID : tx3g
Duration : 1 h 55 min
Bit rate mode : Variable
Bit rate : 26 b/s
Frame rate : 0.196 FPS
Stream size : 21.8 KiB (0%)
Title : 中文(简体)
Language : 中文
Forced : No
Encoded date : UTC 2022-07-14 15:56:24
Tagged date : UTC 2022-07-14 15:56:26

Text #4
ID : 6
Format : Timed Text
Codec ID : tx3g
Duration : 1 h 55 min
Bit rate mode : Variable
Bit rate : 25 b/s
Frame rate : 0.214 FPS
Stream size : 21.3 KiB (0%)
Title : 中文(繁体)
Language : 中文
Forced : No
Encoded date : UTC 2022-07-14 15:56:24
Tagged date : UTC 2022-07-14 15:56:26


Text #5
ID : 7
Format : Timed Text
Codec ID : tx3g
Duration : 1 h 40 min
Bit rate mode : Variable
Bit rate : 24 b/s
Frame rate : 0.225 FPS
Stream size : 17.9 KiB (0%)
Title : Croatian
Language : Croatian
Forced : No
Encoded date : UTC 2022-07-14 15:56:24
Tagged date : UTC 2022-07-14 15:56:26

Text #6
ID : 8
Format : Timed Text
Codec ID : tx3g
Duration : 1 h 55 min
Bit rate mode : Variable
Bit rate : 22 b/s
Frame rate : 0.199 FPS
Stream size : 18.5 KiB (0%)
Title : Czech
Language : Czech
Forced : No
Encoded date : UTC 2022-07-14 15:56:24
Tagged date : UTC 2022-07-14 15:56:26

Text #7
ID : 9
Format : Timed Text
Codec ID : tx3g
Duration : 1 h 55 min
Bit rate mode : Variable
Bit rate : 22 b/s
Frame rate : 0.194 FPS
Stream size : 18.5 KiB (0%)
Title : Danish
Language : Danish
Forced : No
Encoded date : UTC 2022-07-14 15:56:25
Tagged date : UTC 2022-07-14 15:56:26

Text #8
ID : 10
Format : Timed Text
Codec ID : tx3g
Duration : 1 h 55 min
Bit rate mode : Variable
Bit rate : 22 b/s
Frame rate : 0.192 FPS
Stream size : 18.6 KiB (0%)
Title : Dutch
Language : Dutch
Forced : No
Encoded date : UTC 2022-07-14 15:56:25
Tagged date : UTC 2022-07-14 15:56:26

Text #9
ID : 11
Format : Timed Text
Codec ID : tx3g
Duration : 1 h 55 min
Bit rate mode : Variable
Bit rate : 22 b/s
Frame rate : 0.194 FPS
Stream size : 18.3 KiB (0%)
Title : Finnish
Language : Finnish
Forced : No
Encoded date : UTC 2022-07-14 15:56:25
Tagged date : UTC 2022-07-14 15:56:26

Text #10
ID : 12
Format : Timed Text
Codec ID : tx3g
Duration : 1 h 55 min
Bit rate mode : Variable
Bit rate : 23 b/s
Frame rate : 0.198 FPS
Stream size : 19.3 KiB (0%)
Title : French
Language : French
Forced : No
Encoded date : UTC 2022-07-14 15:56:25
Tagged date : UTC 2022-07-14 15:56:26

Text #11
ID : 13
Format : Timed Text
Codec ID : tx3g
Duration : 1 h 55 min
Bit rate mode : Variable
Bit rate : 23 b/s
Frame rate : 0.195 FPS
Stream size : 19.6 KiB (0%)
Title : German
Language : German
Forced : No
Encoded date : UTC 2022-07-14 15:56:25
Tagged date : UTC 2022-07-14 15:56:26

Text #12
ID : 14
Format : Timed Text
Codec ID : tx3g
Duration : 1 h 55 min
Bit rate mode : Variable
Bit rate : 35 b/s
Frame rate : 0.201 FPS
Stream size : 29.9 KiB (0%)
Title : Greek
Language : Greek
Forced : No
Encoded date : UTC 2022-07-14 15:56:25
Tagged date : UTC 2022-07-14 15:56:26

Text #13
ID : 15
Format : Timed Text
Codec ID : tx3g
Duration : 1 h 55 min
Bit rate mode : Variable
Bit rate : 33 b/s
Frame rate : 0.195 FPS
Stream size : 28.4 KiB (0%)
Title : Hebrew
Language : Hebrew
Forced : No
Encoded date : UTC 2022-07-14 15:56:25
Tagged date : UTC 2022-07-14 15:56:26

Text #14
ID : 16
Format : Timed Text
Codec ID : tx3g
Duration : 1 h 55 min
Bit rate mode : Variable
Bit rate : 22 b/s
Frame rate : 0.194 FPS
Stream size : 18.3 KiB (0%)
Title : Hungarian
Language : Hungarian
Forced : No
Encoded date : UTC 2022-07-14 15:56:25
Tagged date : UTC 2022-07-14 15:56:26

Text #15
ID : 17
Format : Timed Text
Codec ID : tx3g
Duration : 1 h 55 min
Bit rate mode : Variable
Bit rate : 23 b/s
Frame rate : 0.192 FPS
Stream size : 19.1 KiB (0%)
Title : Indonesian
Language : Indonesian
Forced : No
Encoded date : UTC 2022-07-14 15:56:25
Tagged date : UTC 2022-07-14 15:56:26

Text #16
ID : 18
Format : Timed Text
Codec ID : tx3g
Duration : 1 h 55 min
Bit rate mode : Variable
Bit rate : 22 b/s
Frame rate : 0.191 FPS
Stream size : 18.8 KiB (0%)
Title : Italian
Language : Italian
Forced : No
Encoded date : UTC 2022-07-14 15:56:25
Tagged date : UTC 2022-07-14 15:56:26

Text #17
ID : 19
Format : Timed Text
Codec ID : tx3g
Duration : 1 h 55 min
Bit rate mode : Variable
Bit rate : 23 b/s
Frame rate : 0.196 FPS
Stream size : 19.6 KiB (0%)
Title : Japanese
Language : Japanese
Forced : No
Encoded date : UTC 2022-07-14 15:56:25
Tagged date : UTC 2022-07-14 15:56:26

Text #18
ID : 20
Format : Timed Text
Codec ID : tx3g
Duration : 1 h 55 min
Bit rate mode : Variable
Bit rate : 26 b/s
Frame rate : 0.195 FPS
Stream size : 22.4 KiB (0%)
Title : Korean
Language : Korean
Forced : No
Encoded date : UTC 2022-07-14 15:56:25
Tagged date : UTC 2022-07-14 15:56:26

Text #19
ID : 21
Format : Timed Text
Codec ID : tx3g
Duration : 1 h 40 min
Bit rate mode : Variable
Bit rate : 25 b/s
Frame rate : 0.221 FPS
Stream size : 18.7 KiB (0%)
Title : Malay
Language : Malay
Forced : No
Encoded date : UTC 2022-07-14 15:56:25
Tagged date : UTC 2022-07-14 15:56:26

Text #20
ID : 22
Format : Timed Text
Codec ID : tx3g
Duration : 1 h 55 min
Bit rate mode : Variable
Bit rate : 21 b/s
Frame rate : 0.188 FPS
Stream size : 18.1 KiB (0%)
Title : Norwegian
Language : Norwegian Bokmal
Forced : No
Encoded date : UTC 2022-07-14 15:56:25
Tagged date : UTC 2022-07-14 15:56:26

Text #21
ID : 23
Format : Timed Text
Codec ID : tx3g
Duration : 1 h 55 min
Bit rate mode : Variable
Bit rate : 20 b/s
Frame rate : 0.192 FPS
Stream size : 16.6 KiB (0%)
Title : Polish
Language : Polish
Forced : No
Encoded date : UTC 2022-07-14 15:56:25
Tagged date : UTC 2022-07-14 15:56:26

Text #22
ID : 24
Format : Timed Text
Codec ID : tx3g
Duration : 1 h 55 min
Bit rate mode : Variable
Bit rate : 22 b/s
Frame rate : 0.193 FPS
Stream size : 18.5 KiB (0%)
Title : Portuguese
Language : Portuguese
Forced : No
Encoded date : UTC 2022-07-14 15:56:25
Tagged date : UTC 2022-07-14 15:56:26

Text #23
ID : 25
Format : Timed Text
Codec ID : tx3g
Duration : 1 h 55 min
Bit rate mode : Variable
Bit rate : 22 b/s
Frame rate : 0.199 FPS
Stream size : 19.1 KiB (0%)
Title : Portuguese
Language : Portuguese
Forced : No
Encoded date : UTC 2022-07-14 15:56:25
Tagged date : UTC 2022-07-14 15:56:26

Text #24
ID : 26
Format : Timed Text
Codec ID : tx3g
Duration : 1 h 55 min
Bit rate mode : Variable
Bit rate : 26 b/s
Frame rate : 0.198 FPS
Stream size : 21.6 KiB (0%)
Title : Romanian
Language : Romanian
Forced : No
Encoded date : UTC 2022-07-14 15:56:25
Tagged date : UTC 2022-07-14 15:56:26

Text #25
ID : 27
Format : Timed Text
Codec ID : tx3g
Duration : 1 h 55 min
Bit rate mode : Variable
Bit rate : 33 b/s
Frame rate : 0.194 FPS
Stream size : 28.4 KiB (0%)
Title : Russian
Language : Russian
Forced : No
Encoded date : UTC 2022-07-14 15:56:25
Tagged date : UTC 2022-07-14 15:56:26

Text #26
ID : 28
Format : Timed Text
Codec ID : tx3g
Duration : 1 h 55 min
Bit rate mode : Variable
Bit rate : 22 b/s
Frame rate : 0.201 FPS
Stream size : 18.7 KiB (0%)
Title : Spanish-EU
Language : Spanish
Forced : No
Encoded date : UTC 2022-07-14 15:56:25
Tagged date : UTC 2022-07-14 15:56:26

Text #27
ID : 29
Format : Timed Text
Codec ID : tx3g
Duration : 1 h 55 min
Bit rate mode : Variable
Bit rate : 23 b/s
Frame rate : 0.207 FPS
Stream size : 19.4 KiB (0%)
Title : Spanish-EU
Language : Spanish
Forced : No
Encoded date : UTC 2022-07-14 15:56:25
Tagged date : UTC 2022-07-14 15:56:26

Text #28
ID : 30
Format : Timed Text
Codec ID : tx3g
Duration : 1 h 55 min
Bit rate mode : Variable
Bit rate : 22 b/s
Frame rate : 0.178 FPS
Stream size : 18.8 KiB (0%)
Title : Swedish
Language : Swedish
Forced : No
Encoded date : UTC 2022-07-14 15:56:25
Tagged date : UTC 2022-07-14 15:56:26

Text #29
ID : 31
Format : Timed Text
Codec ID : tx3g
Duration : 1 h 55 min
Bit rate mode : Variable
Bit rate : 54 b/s
Frame rate : 0.196 FPS
Stream size : 45.8 KiB (0%)
Title : Thai
Language : Thai
Forced : No
Encoded date : UTC 2022-07-14 15:56:26
Tagged date : UTC 2022-07-14 15:56:26

Text #30
ID : 32
Format : Timed Text
Codec ID : tx3g
Duration : 1 h 55 min
Bit rate mode : Variable
Bit rate : 22 b/s
Frame rate : 0.190 FPS
Stream size : 18.8 KiB (0%)
Title : Turkish
Language : Turkish
Forced : No
Encoded date : UTC 2022-07-14 15:56:26
Tagged date : UTC 2022-07-14 15:56:26

Text #31
ID : 33
Format : Timed Text
Codec ID : tx3g
Duration : 1 h 55 min
Bit rate mode : Variable
Bit rate : 31 b/s
Frame rate : 0.194 FPS
Stream size : 26.4 KiB (0%)
Title : Vietnamese
Language : Vietnamese
Forced : No
Encoded date : UTC 2022-07-14 15:56:26
Tagged date : UTC 2022-07-14 15:56:26

资源速度为零或资源敏感被和谐时,推荐使用qBittorrent等下载软件,有条件的推荐115更好的下载软件!

下载地址:
游客,如果您要查看本帖隐藏内容请回复

游客,如果您要查看本帖隐藏内容请回复

游客,如果您要查看本帖隐藏内容请回复

游客,如果您要查看本帖隐藏内容请回复


相关其他版本链接:《惊天营救/极限营救(内嵌中字)》2160P高清版本下载



上一篇:灭绝 [简繁中字] / Extinction (2018) 4K高清版本下载
下一篇:旅馆恋曲 [简繁中字] / Falling Inn Love (2019) 4K高清版本下载
回复

使用道具 举报

40

主题

1504

帖子

4316

积分

4K家园VIP

Rank: 9Rank: 9Rank: 9

积分
4316
发表于 2022-7-15 13:25:31 | 显示全部楼层
高手啊
回复 支持 反对

使用道具 举报

2

主题

1406

帖子

4240

积分

4K家园VIP

Rank: 9Rank: 9Rank: 9

积分
4240
发表于 2022-7-22 22:36:07 来自手机 | 显示全部楼层
佩服佩服!
回复 支持 反对

使用道具 举报

1

主题

1352

帖子

4074

积分

4K家园VIP

Rank: 9Rank: 9Rank: 9

积分
4074
发表于 2022-7-24 03:26:30 | 显示全部楼层
前排顶,很好!
回复 支持 反对

使用道具 举报

0

主题

21

帖子

99

积分

4K家园VIP

Rank: 9Rank: 9Rank: 9

积分
99
发表于 2022-7-24 12:48:58 | 显示全部楼层
感谢分享!
回复

使用道具 举报

57

主题

1540

帖子

4478

积分

4K家园VIP

Rank: 9Rank: 9Rank: 9

积分
4478
发表于 2022-7-26 07:36:54 | 显示全部楼层
4K版的应该更清晰吧
回复 支持 反对

使用道具 举报

201

主题

1748

帖子

4806

积分

4K家园VIP

Rank: 9Rank: 9Rank: 9

积分
4806
发表于 2022-7-27 20:08:02 | 显示全部楼层
求沙发
回复 支持 反对

使用道具 举报

0

主题

1

帖子

10

积分

新手上路

Rank: 1

积分
10
发表于 2022-7-31 13:23:12 | 显示全部楼层
感谢
回复

使用道具 举报

0

主题

29

帖子

290

积分

新手上路

Rank: 1

积分
290
发表于 2022-8-7 21:02:20 | 显示全部楼层
2121212121212132154
回复 支持 反对

使用道具 举报

您需要登录后才可以回帖 登录 | 立即注册

本版积分规则

精彩图文
Archiver|手机版|TAG|Sitemap|新帖|专题|联系我们:邮箱: 4kjia.com@gmail.com   

4k家园   ©2019