[4K电影] 留在身旁 [简繁中字] / Don't Make Me Go (2022) 4K高清版本下载

[复制链接]

2163

主题

2306

帖子

1万

积分

超级版主

Rank: 8Rank: 8

积分
16861
 楼主| 发表于 2022-7-15 21:05:45 | 显示全部楼层 |阅读模式
QQ图片20220715205248_副本.png

◎标  题 留在身旁
◎片  名 Don't Make Me Go
◎年  代 2022
◎产  地 美国
◎类  别 剧情
◎语  言 英语
◎上映日期 2022-07-15(美国网络)
◎IMDb评分 6.6/10 from 47 users
◎IMDb链接 https://www.imdb.com/title/tt2597804/
◎豆瓣评分 0/10 from 0 users
◎豆瓣链接 https://movie.douban.com/subject/35498086/
◎片  长 109分钟
◎导  演 汉娜·马克斯 Hannah Marks
◎编  剧 薇拉·赫伯特 Vera Herbert
◎演  员 约翰·赵 John Cho
       米娅·伊萨克 Mia Isaac
       卡雅·斯考达里奥 Kaya Scodelario
       乔希·汤姆森 Josh Thomson
       奥蒂斯·丹吉 Otis Dhanji
       斯蒂芬妮娅·欧文 Stefania Owen
       米切尔·霍普 Mitchell Hope
       杰梅奈·克莱门特 Jemaine Clement
       伊丽莎白·霍桑 Elizabeth Hawthorne
       乔丹·穆尼 Jordan Mooney
       杰德·哈洛 Jade Harlow
       西蒙·米德 Simon Mead
       阿洛·吉布森 Arlo Gibson
       克莱尔·奇塔姆 Claire Chitham
       莫嘉娜·奥莱利 Morgana O'Reilly
       汉娜·马克斯 Hannah Marks


◎简  介


  当一个十几岁的女儿的单身父亲得知自己患有致命的脑瘤时,他带她去一次公路旅行,寻找几年前抛弃了她的母亲,并试图教会她在余生中可能需要的一切。

Video
ID : 1
Format : HEVC
Format/Info : High Efficiency Video Coding
Format profile : Main@L5@Main
Codec ID : V_MPEGH/ISO/HEVC
Duration : 1 h 50 min
Bit rate : 14.4 Mb/s
Width : 3 840 pixels
Height : 1 600 pixels
Display aspect ratio : 2.40:1
Frame rate mode : Constant
Frame rate : 23.976 (24000/1001) FPS
Standard : NTSC
Color space : YUV
Chroma subsampling : 4:2:0
Bit depth : 8 bits
Bits/(Pixel*Frame) : 0.098
Stream size : 11.1 GiB (96%)
Writing library : x265 2.9_elemental+1-9e0607aa5b6f:[Linux][GCC 4.8.5][64 bit] 8bit+10bit+12bit
Encoding settings : cpuid=1111039 / frame-threads=2 / wpp / no-pmode / no-pme / psnr / ssim / log-level=2 / csv / csv-log-level=2 / input-csp=1 / input-res=3840x1600 / interlace=0 / total-frames=0 / level-idc=50 / high-tier=1 / uhd-bd=0 / ref=5 / no-allow-non-conformance / no-repeat-headers / annexb / no-aud / no-hrd / info / hash=0 / no-temporal-layers / no-open-gop / min-keyint=61 / keyint=120 / gop-lookahead=0 / bframes=8 / b-adapt=2 / b-pyramid / bframe-bias=0 / rc-lookahead=120 / lookahead-slices=4 / scenecut=0 / radl=0 / no-intra-refresh / ctu=64 / min-cu-size=8 / rect / amp / max-tu-size=32 / tu-inter-depth=4 / tu-intra-depth=4 / limit-tu=4 / rdoq-level=2 / dynamic-rd=0.00 / no-ssim-rd / signhide / tskip / nr-intra=100 / nr-inter=600 / no-constrained-intra / strong-intra-smoothing / max-merge=3 / limit-refs=3 / limit-modes / me=3 / subme=3 / merange=57 / temporal-mvp / weightp / weightb / no-analyze-src-pics / deblock=0:0 / no-sao / no-sao-non-deblock / rd=4 / no-early-skip / no-rskip / no-fast-intra / tskip-fast / no-cu-lossless / b-intra / no-splitrd-skip / rdpenalty=0 / psy-rd=4.00 / psy-rdoq=10.00 / no-rd-refine / no-lossless / cbqpoffs=0 / crqpoffs=0 / rc=crf / crf=25.0 / qcomp=0.60 / qpstep=1 / stats-write=0 / stats-read=0 / vbv-maxrate=15000 / vbv-bufsize=20000 / vbv-init=0.9 / crf-max=0.0 / crf-min=0.0 / ipratio=1.10 / pbratio=1.00 / aq-mode=0 / aq-strength=1.50 / no-cutree / zone-count=0 / no-strict-cbr / qg-size=32 / rc-grain / qpmax=69 / qpmin=0 / const-vbv / sar=1 / overscan=0 / videoformat=2 / range=0 / colorprim=1 / transfer=1 / colormatrix=1 / chromaloc=0 / display-window=0 / max-cll=0,0 / min-luma=0 / max-luma=255 / log2-max-poc-lsb=8 / vui-timing-info / vui-hrd-info / slices=1 / opt-qp-pps / no-opt-ref-list-length-pps / no-multi-pass-opt-rps / scenecut-bias=0.05 / no-opt-cu-delta-qp / no-aq-motion / no-hdr / no-hdr-opt / no-dhdr10-opt / no-idr-recovery-sei / analysis-reuse-level=5 / scale-factor=0 / refine-intra=0 / refine-inter=0 / refine-mv=0 / no-limit-sao / ctu-info=0 / no-lowpass-dct / refine-mv-type=0 / copy-pic=1 / max-ausize-factor=1.0 / no-dynamic-refine / no-single-sei
Default : Yes
Forced : No
Color range : Limited
Color primaries : BT.709
Transfer characteristics : BT.709
Matrix coefficients : BT.709

Audio
ID : 2
Format : E-AC-3
Format/Info : Enhanced AC-3
Commercial name : Dolby Digital Plus
Codec ID : A_EAC3
Duration : 1 h 50 min
Bit rate mode : Constant
Bit rate : 640 kb/s
Channel(s) : 6 channels
Channel layout : L R C LFE Ls Rs
Sampling rate : 48.0 kHz
Frame rate : 31.250 FPS (1536 SPF)
Compression mode : Lossy
Stream size : 508 MiB (4%)
Title : English
Language : English
Service kind : Complete Main
Default : No
Forced : No

Text #1
ID : 3
Format : UTF-8
Codec ID : S_TEXT/UTF8
Codec ID/Info : UTF-8 Plain Text
Duration : 1 h 49 min
Bit rate : 51 b/s
Frame rate : 0.168 FPS
Count of elements : 1105
Stream size : 41.5 KiB (0%)
Title : Filipino
Language : fil
Default : No
Forced : No

Text #2
ID : 4
Format : UTF-8
Codec ID : S_TEXT/UTF8
Codec ID/Info : UTF-8 Plain Text
Duration : 1 h 49 min
Bit rate : 135 b/s
Frame rate : 0.178 FPS
Count of elements : 1168
Stream size : 108 KiB (0%)
Title : Thai
Language : Thai
Default : No
Forced : No

Text #3
ID : 5
Format : UTF-8
Codec ID : S_TEXT/UTF8
Codec ID/Info : UTF-8 Plain Text
Duration : 1 h 49 min
Bit rate : 55 b/s
Frame rate : 0.178 FPS
Count of elements : 1168
Stream size : 44.4 KiB (0%)
Title : 中文(繁体)
Language : 中文
Default : No
Forced : No

Text #4
ID : 6
Format : UTF-8
Codec ID : S_TEXT/UTF8
Codec ID/Info : UTF-8 Plain Text
Duration : 1 h 49 min
Bit rate : 53 b/s
Frame rate : 0.178 FPS
Count of elements : 1168
Stream size : 42.9 KiB (0%)
Title : 中文(简体)
Language : 中文
Default : No
Forced : No


Text #5
ID : 7
Format : UTF-8
Codec ID : S_TEXT/UTF8
Codec ID/Info : UTF-8 Plain Text
Duration : 1 h 49 min
Bit rate : 52 b/s
Frame rate : 0.177 FPS
Count of elements : 1160
Stream size : 41.9 KiB (0%)
Title : Italian
Language : Italian
Default : No
Forced : No

Text #6
ID : 8
Format : UTF-8
Codec ID : S_TEXT/UTF8
Codec ID/Info : UTF-8 Plain Text
Duration : 1 h 31 min
Bit rate : 0 b/s
Frame rate : 0.001 FPS
Count of elements : 5
Stream size : 100 Bytes (0%)
Title : English [Forced]
Language : English
Default : No
Forced : Yes

Text #7
ID : 9
Format : UTF-8
Codec ID : S_TEXT/UTF8
Codec ID/Info : UTF-8 Plain Text
Duration : 1 h 49 min
Bit rate : 54 b/s
Frame rate : 0.177 FPS
Count of elements : 1161
Stream size : 43.6 KiB (0%)
Title : Castilian
Language : Spanish
Default : No
Forced : No

Text #8
ID : 10
Format : UTF-8
Codec ID : S_TEXT/UTF8
Codec ID/Info : UTF-8 Plain Text
Duration : 1 h 49 min
Bit rate : 53 b/s
Frame rate : 0.177 FPS
Count of elements : 1159
Stream size : 43.2 KiB (0%)
Title : Swedish
Language : Swedish
Default : No
Forced : No

Text #9
ID : 11
Format : UTF-8
Codec ID : S_TEXT/UTF8
Codec ID/Info : UTF-8 Plain Text
Duration : 1 h 49 min
Bit rate : 49 b/s
Frame rate : 0.171 FPS
Count of elements : 1123
Stream size : 39.8 KiB (0%)
Title : Danish
Language : Danish
Default : No
Forced : No

Text #10
ID : 12
Format : UTF-8
Codec ID : S_TEXT/UTF8
Codec ID/Info : UTF-8 Plain Text
Duration : 1 h 49 min
Bit rate : 74 b/s
Frame rate : 0.309 FPS
Count of elements : 2030
Stream size : 59.7 KiB (0%)
Title : English [SDH]
Language : English
Default : No
Forced : No

Text #11
ID : 13
Format : UTF-8
Codec ID : S_TEXT/UTF8
Codec ID/Info : UTF-8 Plain Text
Duration : 1 h 49 min
Bit rate : 45 b/s
Frame rate : 0.176 FPS
Count of elements : 1157
Stream size : 36.2 KiB (0%)
Title : Finnish
Language : Finnish
Default : No
Forced : No

Text #12
ID : 14
Format : UTF-8
Codec ID : S_TEXT/UTF8
Codec ID/Info : UTF-8 Plain Text
Duration : 1 h 49 min
Bit rate : 56 b/s
Frame rate : 0.177 FPS
Count of elements : 1161
Stream size : 45.2 KiB (0%)
Title : Hungarian
Language : Hungarian
Default : No
Forced : No

Text #13
ID : 15
Format : UTF-8
Codec ID : S_TEXT/UTF8
Codec ID/Info : UTF-8 Plain Text
Duration : 1 h 49 min
Bit rate : 52 b/s
Frame rate : 0.177 FPS
Count of elements : 1159
Stream size : 42.3 KiB (0%)
Title : Indonesian
Language : Indonesian
Default : No
Forced : No

Text #14
ID : 16
Format : UTF-8
Codec ID : S_TEXT/UTF8
Codec ID/Info : UTF-8 Plain Text
Duration : 1 h 49 min
Bit rate : 100 b/s
Frame rate : 0.178 FPS
Count of elements : 1168
Stream size : 80.3 KiB (0%)
Title : Arabic
Language : Arabic
Default : No
Forced : No

Text #15
ID : 17
Format : UTF-8
Codec ID : S_TEXT/UTF8
Codec ID/Info : UTF-8 Plain Text
Duration : 1 h 49 min
Bit rate : 53 b/s
Frame rate : 0.175 FPS
Count of elements : 1150
Stream size : 43.1 KiB (0%)
Title : Polish
Language : Polish
Default : No
Forced : No

Text #16
ID : 18
Format : UTF-8
Codec ID : S_TEXT/UTF8
Codec ID/Info : UTF-8 Plain Text
Duration : 1 h 49 min
Bit rate : 50 b/s
Frame rate : 0.177 FPS
Count of elements : 1160
Stream size : 40.8 KiB (0%)
Title : Turkish
Language : Turkish
Default : No
Forced : No

Text #17
ID : 19
Format : UTF-8
Codec ID : S_TEXT/UTF8
Codec ID/Info : UTF-8 Plain Text
Duration : 1 h 49 min
Bit rate : 45 b/s
Frame rate : 0.177 FPS
Count of elements : 1158
Stream size : 36.4 KiB (0%)
Title : Malay
Language : Malay
Default : No
Forced : No

Text #18
ID : 20
Format : UTF-8
Codec ID : S_TEXT/UTF8
Codec ID/Info : UTF-8 Plain Text
Duration : 1 h 49 min
Bit rate : 144 b/s
Frame rate : 0.178 FPS
Count of elements : 1169
Stream size : 116 KiB (0%)
Title : Tamil
Language : Tamil
Default : No
Forced : No

Text #19
ID : 21
Format : UTF-8
Codec ID : S_TEXT/UTF8
Codec ID/Info : UTF-8 Plain Text
Duration : 1 h 49 min
Bit rate : 132 b/s
Frame rate : 0.178 FPS
Count of elements : 1168
Stream size : 106 KiB (0%)
Title : Hindi
Language : Hindi
Default : No
Forced : No

Text #20
ID : 22
Format : UTF-8
Codec ID : S_TEXT/UTF8
Codec ID/Info : UTF-8 Plain Text
Duration : 1 h 49 min
Bit rate : 54 b/s
Frame rate : 0.177 FPS
Count of elements : 1160
Stream size : 43.6 KiB (0%)
Title : German
Language : German
Default : No
Forced : No

Text #21
ID : 23
Format : UTF-8
Codec ID : S_TEXT/UTF8
Codec ID/Info : UTF-8 Plain Text
Duration : 1 h 49 min
Bit rate : 52 b/s
Frame rate : 0.177 FPS
Count of elements : 1162
Stream size : 41.7 KiB (0%)
Title : Spanish
Language : Spanish
Default : No
Forced : No

Text #22
ID : 24
Format : UTF-8
Codec ID : S_TEXT/UTF8
Codec ID/Info : UTF-8 Plain Text
Duration : 1 h 49 min
Bit rate : 55 b/s
Frame rate : 0.177 FPS
Count of elements : 1159
Stream size : 44.2 KiB (0%)
Title : Romanian
Language : Romanian
Default : No
Forced : No

Text #23
ID : 25
Format : UTF-8
Codec ID : S_TEXT/UTF8
Codec ID/Info : UTF-8 Plain Text
Duration : 1 h 49 min
Bit rate : 52 b/s
Frame rate : 0.176 FPS
Count of elements : 1157
Stream size : 41.8 KiB (0%)
Title : Norwegian (Bokmål)
Language : Norwegian Bokmal
Default : No
Forced : No

Text #24
ID : 26
Format : UTF-8
Codec ID : S_TEXT/UTF8
Codec ID/Info : UTF-8 Plain Text
Duration : 1 h 49 min
Bit rate : 138 b/s
Frame rate : 0.178 FPS
Count of elements : 1168
Stream size : 111 KiB (0%)
Title : Telugu
Language : Telugu
Default : No
Forced : No

Text #25
ID : 27
Format : UTF-8
Codec ID : S_TEXT/UTF8
Codec ID/Info : UTF-8 Plain Text
Duration : 1 h 49 min
Bit rate : 51 b/s
Frame rate : 0.176 FPS
Count of elements : 1155
Stream size : 41.0 KiB (0%)
Title : French
Language : French
Default : No
Forced : No

Text #26
ID : 28
Format : UTF-8
Codec ID : S_TEXT/UTF8
Codec ID/Info : UTF-8 Plain Text
Duration : 1 h 46 min
Bit rate : 60 b/s
Frame rate : 0.259 FPS
Count of elements : 1646
Stream size : 47.3 KiB (0%)
Title : English
Language : English
Default : No
Forced : No

Text #27
ID : 29
Format : UTF-8
Codec ID : S_TEXT/UTF8
Codec ID/Info : UTF-8 Plain Text
Duration : 1 h 49 min
Bit rate : 49 b/s
Frame rate : 0.165 FPS
Count of elements : 1084
Stream size : 40.0 KiB (0%)
Title : Dutch
Language : Dutch
Default : No
Forced : No

Text #28
ID : 30
Format : UTF-8
Codec ID : S_TEXT/UTF8
Codec ID/Info : UTF-8 Plain Text
Duration : 1 h 49 min
Bit rate : 49 b/s
Frame rate : 0.177 FPS
Count of elements : 1161
Stream size : 39.9 KiB (0%)
Title : Czech
Language : Czech
Default : No
Forced : No

Text #29
ID : 31
Format : UTF-8
Codec ID : S_TEXT/UTF8
Codec ID/Info : UTF-8 Plain Text
Duration : 1 h 49 min
Bit rate : 46 b/s
Frame rate : 0.245 FPS
Count of elements : 1605
Stream size : 37.5 KiB (0%)
Title : Japanese
Language : Japanese
Default : No
Forced : No

Text #30
ID : 32
Format : UTF-8
Codec ID : S_TEXT/UTF8
Codec ID/Info : UTF-8 Plain Text
Duration : 1 h 49 min
Bit rate : 54 b/s
Frame rate : 0.177 FPS
Count of elements : 1159
Stream size : 43.5 KiB (0%)
Title : Portuguese
Language : Portuguese
Default : No
Forced : No

Text #31
ID : 33
Format : UTF-8
Codec ID : S_TEXT/UTF8
Codec ID/Info : UTF-8 Plain Text
Duration : 1 h 49 min
Bit rate : 65 b/s
Frame rate : 0.178 FPS
Count of elements : 1168
Stream size : 52.7 KiB (0%)
Title : Korean
Language : Korean
Default : No
Forced : No

Text #32
ID : 34
Format : UTF-8
Codec ID : S_TEXT/UTF8
Codec ID/Info : UTF-8 Plain Text
Duration : 1 h 49 min
Bit rate : 50 b/s
Frame rate : 0.171 FPS
Count of elements : 1124
Stream size : 40.8 KiB (0%)
Title : Brazilian Portuguese
Language : Portuguese
Default : No
Forced : No

Text #33
ID : 35
Format : UTF-8
Codec ID : S_TEXT/UTF8
Codec ID/Info : UTF-8 Plain Text
Duration : 1 h 49 min
Bit rate : 89 b/s
Frame rate : 0.178 FPS
Count of elements : 1169
Stream size : 72.1 KiB (0%)
Title : Russian
Language : Russian
Default : No
Forced : No

Text #34
ID : 36
Format : UTF-8
Codec ID : S_TEXT/UTF8
Codec ID/Info : UTF-8 Plain Text
Duration : 1 h 49 min
Bit rate : 99 b/s
Frame rate : 0.178 FPS
Count of elements : 1167
Stream size : 79.7 KiB (0%)
Title : Hebrew
Language : Hebrew
Default : No
Forced : No

Menu
00:00:00.000 : Amazon Studios
00:00:21.000 : Studio Logo
00:00:31.000 : Scene 3
00:02:18.000 : Scene 4
00:03:54.000 : Scene 5
00:04:44.000 : Scene 6
00:07:25.000 : Scene 7
00:11:21.000 : Scene 8
00:12:59.000 : Scene 9
00:13:46.000 : Scene 10
00:14:51.000 : Scene 11
00:17:23.000 : Scene 12
00:18:40.000 : Scene 13
00:21:13.000 : Scene 14
00:22:10.000 : Scene 15
00:25:23.000 : Scene 16
00:28:54.000 : Scene 17
00:33:33.000 : Scene 18
00:39:30.000 : Scene 19
00:43:27.000 : Scene 20
00:49:37.000 : Scene 21
00:52:19.000 : Scene 22
00:55:50.000 : Scene 23
01:02:45.000 : Scene 24
01:05:22.000 : Scene 25
01:07:22.000 : Scene 26
01:08:24.000 : Scene 27
01:15:27.000 : Scene 28
01:16:37.000 : Scene 29
01:22:01.000 : Scene 30
01:26:42.000 : Scene 31
01:31:15.000 : Scene 32
01:35:53.000 : Scene 33
01:40:01.000 : Scene 34
01:42:56.000 : Scene 35
01:44:50.000 : End Credits


资源速度为零或资源敏感被和谐时,推荐使用qBittorrent等下载软件,有条件的推荐115更好的下载软件!

下载地址:


游客,如果您要查看本帖隐藏内容请回复

游客,如果您要查看本帖隐藏内容请回复









上一篇:美国大屠杀 / American Carnage (2022) 4K高清版本下载
下一篇:浓情录音带 [简繁中字] / Mixtape (2021) 4K高清版本下载
回复

使用道具 举报

2

主题

1424

帖子

4290

积分

4K家园VIP

Rank: 9Rank: 9Rank: 9

积分
4290
发表于 2022-7-15 21:05:51 | 显示全部楼层
这么强,支持楼主,佩服
回复 支持 反对

使用道具 举报

0

主题

3

帖子

16

积分

新手上路

Rank: 1

积分
16
发表于 2022-7-15 22:17:31 | 显示全部楼层
感谢分享
回复

使用道具 举报

1

主题

1513

帖子

4389

积分

4K家园VIP

Rank: 9Rank: 9Rank: 9

积分
4389
发表于 2022-7-16 01:45:27 | 显示全部楼层
4K家园资源最近貌似越来越多了
回复 支持 反对

使用道具 举报

1

主题

1398

帖子

4030

积分

4K家园VIP

Rank: 9Rank: 9Rank: 9

积分
4030
发表于 2022-7-16 09:56:58 | 显示全部楼层
感谢楼主的分享,还是阔以滴
回复 支持 反对

使用道具 举报

0

主题

1736

帖子

4722

积分

4K家园VIP

Rank: 9Rank: 9Rank: 9

积分
4722
发表于 2022-7-16 11:30:02 | 显示全部楼层
顶起出售广告位
回复 支持 反对

使用道具 举报

0

主题

104

帖子

663

积分

4K家园VIP

Rank: 9Rank: 9Rank: 9

积分
663
发表于 2022-7-16 13:25:19 | 显示全部楼层
让 江小白 来看看帖子里藏了啥好东西~~~
回复 支持 反对

使用道具 举报

0

主题

1610

帖子

4414

积分

4K家园VIP

Rank: 9Rank: 9Rank: 9

积分
4414
发表于 2022-7-16 13:44:35 | 显示全部楼层
传说中的沙发???哇卡卡
回复 支持 反对

使用道具 举报

您需要登录后才可以回帖 登录 | 立即注册

本版积分规则

精彩图文
Archiver|手机版|TAG|Sitemap|新帖|专题|联系我们:邮箱: 4kjia.com@gmail.com   

4k家园   ©2019