[4K UHD 蓝光原盘] 女王神剑 / Red Sonja (1985) 4K蓝光[原盘+REMUX]版本下载

[复制链接]

1780

主题

1859

帖子

1万

积分

超级版主

Rank: 8Rank: 8

积分
19465
 楼主| 发表于 2022-7-17 09:45:43 | 显示全部楼层 |阅读模式

QQ图片20220717092825_副本.png

◎标  题 女王神剑
◎译  名 两个大太阳 / 红发女索妮娅 / 圣女复仇
◎片  名 Red Sonja
◎年  代 1985
◎产  地 美国 / 荷兰
◎类  别 动作 / 奇幻 / 冒险
◎语  言 英语
◎上映日期 1985-07-03(美国)
◎IMDb评分 5.1/10 from 41548 users
◎IMDb链接 https://www.imdb.com/title/tt0089893/
◎豆瓣评分 5.7/10 from 649 users
◎豆瓣链接 https://movie.douban.com/subject/1297394/
◎片  长 89 分钟
◎导  演 理查德·弗莱彻 Richard Fleischer
◎编  剧 罗伯特·霍华德 Robert E. Howard / 克里夫·埃克斯顿 Clive Exton / 乔治·麦克唐纳·弗莱泽 George MacDonald Fraser / 罗伊·托马斯 Roy Thomas / 巴里·温莎·史密斯 Barry Windsor-Smith
◎演  员 阿诺·施瓦辛格 Arnold Schwarzenegger
       布里吉特·尼尔森 Brigitte Nielsen
       桑达·伯格曼 Sandahl Bergman
       保罗·L·史密斯 Paul L. Smith
       厄尼·雷耶斯 Ernie Reyes Jr.
       罗纳德·莱西 Ronald Lacey
       帕特·罗奇 Pat Roach
       珍妮特·阿格伦 Janet Agren
       拉腊·兰贝蒂 Lara Lamberti
       汉斯·迈尔 Hans Meyer
       弗兰切丝卡·布露玛拉·科鲁奇 Francesca Romana Coluzzi
       史文-欧尔·托尔森 Sven-Ole Thorsen
       斯特凡诺·玛丽亚·米奥尼 Stefano Maria Mioni
       塔特·伦科夫 Tutte Lemkow
       泰德·霍里诺 Tad Horino
       埃里克·霍尔米 Erik Holmey


◎简  介

    女主角索妮娅生于一个小康之家,过着平静的生活;有一天,她的父母被一名恶毒的皇族杀害。索妮娅伤心欲绝之际,誓要为父母报仇。她原来拥有一种神秘力量,可是她不可爱上男人,除非那个男人强过她,否则,她的神力就会消失。幸好在追寻那个毒后途中,遇上一名心仪的男人……

Video
ID : 1
Format : HEVC
Format/Info : High Efficiency Video Coding
Format profile : Main 10@L5.1@High
HDR format : SMPTE ST 2086, HDR10 compatible
Codec ID : V_MPEGH/ISO/HEVC
Duration : 1 h 29 min
Bit rate : 34.0 Mb/s
Width : 3 840 pixels
Height : 1 634 pixels
Display aspect ratio : 2.35:1
Frame rate mode : Constant
Frame rate : 24.000 FPS
Color space : YUV
Chroma subsampling : 4:2:0 (Type 2)
Bit depth : 10 bits
Bits/(Pixel*Frame) : 0.226
Stream size : 21.2 GiB (90%)
Writing library : x265 3.5+38-20255e6f0:[Windows][MSVC 1932][64 bit] 10bit
Encoding settings : cpuid=1111039 / frame-threads=4 / numa-pools=16 / wpp / no-pmode / no-pme / no-psnr / no-ssim / log-level=2 / input-csp=1 / input-res=3840x1634 / interlace=0 / total-frames=128299 / level-idc=51 / high-tier=1 / uhd-bd=0 / ref=4 / no-allow-non-conformance / repeat-headers / annexb / aud / no-eob / no-eos / hrd / info / hash=0 / no-temporal-layers / open-gop / min-keyint=24 / keyint=250 / gop-lookahead=0 / bframes=4 / b-adapt=2 / b-pyramid / bframe-bias=0 / rc-lookahead=25 / lookahead-slices=4 / scenecut=40 / no-hist-scenecut / radl=0 / no-splice / no-intra-refresh / ctu=64 / min-cu-size=8 / rect / no-amp / max-tu-size=32 / tu-inter-depth=1 / tu-intra-depth=1 / limit-tu=0 / rdoq-level=2 / dynamic-rd=0.00 / no-ssim-rd / signhide / no-tskip / nr-intra=0 / nr-inter=0 / no-constrained-intra / strong-intra-smoothing / max-merge=3 / limit-refs=3 / limit-modes / me=3 / subme=3 / merange=57 / temporal-mvp / no-frame-dup / no-hme / weightp / no-weightb / no-analyze-src-pics / deblock=-3:-3 / no-sao / no-sao-non-deblock / rd=4 / selective-sao=0 / no-early-skip / rskip / no-fast-intra / no-tskip-fast / no-cu-lossless / no-b-intra / no-splitrd-skip / rdpenalty=0 / psy-rd=2.00 / psy-rdoq=1.00 / no-rd-refine / no-lossless / cbqpoffs=0 / crqpoffs=0 / rc=crf / crf=21.5 / qcomp=0.60 / qpstep=4 / stats-write=0 / stats-read=0 / vbv-maxrate=160000 / vbv-bufsize=160000 / vbv-init=0.9 / min-vbv-fullness=50.0 / max-vbv-fullness=80.0 / crf-max=0.0 / crf-min=0.0 / ipratio=1.40 / pbratio=1.30 / aq-mode=2 / aq-strength=1.00 / cutree / zone-count=0 / no-strict-cbr / qg-size=32 / no-rc-grain / qpmax=69 / qpmin=0 / no-const-vbv / sar=1 / overscan=0 / videoformat=5 / range=0 / colorprim=9 / transfer=16 / colormatrix=9 / chromaloc=1 / chromaloc-top=2 / chromaloc-bottom=2 / display-window=0 / master-display=G(8500,39850)B(6550,2300)R(35400,14600)WP(15635,16450)L(10000000,1) / cll=0,0 / min-luma=0 / max-luma=1023 / log2-max-poc-lsb=8 / vui-timing-info / vui-hrd-info / slices=1 / no-opt-qp-pps / no-opt-ref-list-length-pps / no-multi-pass-opt-rps / scenecut-bias=0.05 / hist-threshold=0.03 / no-opt-cu-delta-qp / no-aq-motion / hdr10 / hdr10-opt / no-dhdr10-opt / no-idr-recovery-sei / analysis-reuse-level=0 / analysis-save-reuse-level=0 / analysis-load-reuse-level=0 / scale-factor=0 / refine-intra=0 / refine-inter=0 / refine-mv=1 / refine-ctu-distortion=0 / no-limit-sao / ctu-info=0 / no-lowpass-dct / refine-analysis-type=0 / copy-pic=1 / max-ausize-factor=1.0 / no-dynamic-refine / no-single-sei / no-hevc-aq / no-svt / no-field / qp-adaptation-range=1.00 / scenecut-aware-qp=0conformance-window-offsets / right=0 / bottom=0 / decoder-max-rate=0 / no-vbv-live-multi-pass
Default : Yes
Forced : No
Color range : Limited
Color primaries : BT.2020
Transfer characteristics : PQ
Matrix coefficients : BT.2020 non-constant
Mastering display color primaries : BT.2020
Mastering display luminance : min: 0.0001 cd/m2, max: 1000 cd/m2

Audio
ID : 2
Format : DTS XLL
Format/Info : Digital Theater Systems
Commercial name : DTS-HD Master Audio
Codec ID : A_DTS
Duration : 1 h 29 min
Bit rate mode : Variable
Bit rate : 3 792 kb/s
Channel(s) : 6 channels
Channel layout : C L R Ls Rs LFE
Sampling rate : 48.0 kHz
Frame rate : 93.750 FPS (512 SPF)
Bit depth : 24 bits
Compression mode : Lossless
Stream size : 2.36 GiB (10%)
Language : English
Default : Yes
Forced : No

Text #1
ID : 3
Format : PGS
Muxing mode : zlib
Codec ID : S_HDMV/PGS
Codec ID/Info : Picture based subtitle format used on BDs/HD-DVDs
Duration : 1 h 24 min
Bit rate : 14.8 kb/s
Frame rate : 0.173 FPS
Count of elements : 874
Stream size : 8.95 MiB (0%)
Language : English
Default : No
Forced : No

Text #2
ID : 4
Format : PGS
Muxing mode : zlib
Codec ID : S_HDMV/PGS
Codec ID/Info : Picture based subtitle format used on BDs/HD-DVDs
Duration : 1 h 28 min
Bit rate : 17.2 kb/s
Frame rate : 0.171 FPS
Count of elements : 910
Stream size : 10.9 MiB (0%)
Language : German
Default : No
Forced : No

Text #3
ID : 5
Format : PGS
Muxing mode : zlib
Codec ID : S_HDMV/PGS
Codec ID/Info : Picture based subtitle format used on BDs/HD-DVDs
Duration : 1 h 28 min
Bit rate : 14.8 kb/s
Frame rate : 0.206 FPS
Count of elements : 1098
Stream size : 9.38 MiB (0%)
Language : French
Default : No
Forced : No

Menu
00:00:00.000 : :Chapter 01
00:07:46.750 : :Chapter 02
00:14:01.583 : :Chapter 03
00:22:16.958 : :Chapter 04
00:28:26.333 : :Chapter 05
00:37:40.000 : :Chapter 06
00:45:39.417 : :Chapter 07
00:52:00.042 : :Chapter 08
01:00:04.208 : :Chapter 09
01:07:25.458 : :Chapter 10
01:15:19.375 : :Chapter 11
01:20:20.875 : :Chapter 12
01:29:05.792 : :Chapter 13


新种推荐使用qBittorrent、uTorrent等下载软件,有条件的推荐115更好的下载软件!

其他版本待补...

女王神剑(23.54GB)Red.Sonja.1985.2160p.UHD.BluRay.x265.10bit.HDR.DTS-HD.MA.5.1-GUHZER
游客,如果您要查看本帖隐藏内容请回复





4Q211826fxv4qxz856xz6dxv.gif

上一篇:愤怒的公牛 / Raging Bull‎ (1980) 4K蓝光[原盘+REMUX]版本下载
下一篇:达莱克斯入侵地球 (1966) 4K蓝光[原盘+REMUX]版本下载
回复

使用道具 举报

2

主题

1683

帖子

4667

积分

4K家园VIP

Rank: 9Rank: 9Rank: 9

积分
4667
发表于 2022-7-17 09:45:52 | 显示全部楼层
前排顶起
回复 支持 反对

使用道具 举报

1

主题

1325

帖子

3803

积分

4K家园VIP

Rank: 9Rank: 9Rank: 9

积分
3803
发表于 2022-7-17 09:45:52 | 显示全部楼层
前排顶起
回复 支持 反对

使用道具 举报

0

主题

17

帖子

101

积分

新手上路

Rank: 1

积分
101
发表于 2022-7-17 11:13:36 | 显示全部楼层
前排顶起
回复

使用道具 举报

2

主题

1381

帖子

4009

积分

4K家园VIP

Rank: 9Rank: 9Rank: 9

积分
4009
发表于 2022-7-17 13:11:25 | 显示全部楼层
前排顶起
回复 支持 反对

使用道具 举报

3

主题

1211

帖子

3647

积分

4K家园VIP

Rank: 9Rank: 9Rank: 9

积分
3647
发表于 2022-7-17 19:12:54 | 显示全部楼层
4K家园不错,希望这种资源越多越好
回复 支持 反对

使用道具 举报

44

主题

1493

帖子

4323

积分

4K家园VIP

Rank: 9Rank: 9Rank: 9

积分
4323
发表于 2022-7-17 21:02:32 | 显示全部楼层
支持一下楼主,顶起来
回复 支持 反对

使用道具 举报

您需要登录后才可以回帖 登录 | 立即注册

本版积分规则

精彩图文
Archiver|手机版|TAG|Sitemap|新帖|专题|联系我们:邮箱: 4kjia.com@gmail.com   

4k家园   ©2019