[4K电影] 亲吻亭2 [简繁中字] /The Kissing Booth 2 (2020) 4K高清版本下载

[复制链接]

2163

主题

2306

帖子

1万

积分

超级版主

Rank: 8Rank: 8

积分
16861
 楼主| 发表于 2022-7-17 22:16:12 | 显示全部楼层 |阅读模式

QQ图片20220717220921_副本.png

◎译  名 亲吻亭2/接吻亭2/恋与接吻亭2/亲亲小站 2(港/台)
◎片  名 The Kissing Booth 2
◎年  代 2020
◎产  地 英国/美国
◎类  别 喜剧/爱情
◎语  言 英语
◎上映日期 2020-07-24(美国)
◎IMDb评分 5.7/10 from 31025 users
◎IMDb链接 https://www.imdb.com/title/tt9784456/
◎豆瓣评分 6.3/10 from 5492 users
◎豆瓣链接 https://douban.com/subject/30464908/
◎片  长 130分钟
◎导  演 文斯·马塞洛 Vince Marcello
◎编  剧 文斯·马塞洛 Vince Marcello / 杰伊·阿诺德 Jay S Arnold / 贝丝·里克斯 Beth Reekles
◎主  演 乔伊·金 Joey King
       乔尔·考特尼 Joel Courtney
       雅各布·艾洛蒂 Jacob Elordi
       莫利·林沃德 Molly Ringwald
       泰勒·扎卡·佩雷斯 Taylor Zakhar Perez
       麦茜·理查森·塞勒斯 Maisie Richardson-Sellers
       梅根·杨 Meganne Young
       史蒂芬·詹宁斯 Stephen Jennings
       卡森·怀特 Carson White
       比安卡·博斯 Bianca Bosch
       卡米拉·沃尔夫森 Camilla Wolfson
       赞迪勒·伊赞迪·马达利瓦 Zandile-Izandi Madliwa
       贾德·克罗克 Judd Krok
       埃文·亨斯特 Evan Hengst
       约书亚·丹尼尔·伊迪 Joshua Daniel Eady
       弗朗西斯·肖托·道格拉斯 Frances Sholto-Douglas
       莫尔纳·维瑟 Morne Visser
       D·大卫·莫林 D. David Morin
       凯文·奥托 Kevin Otto
       瓦尔德马尔·舒尔茨 Waldemar Schultz
       凯·卢克·布鲁默 Kai Luke Brummer
       贝丝·里克斯 Beth Reekles


◎简  介


  艾儿·埃文斯(乔伊·金饰)刚刚和改过自新的坏男孩男友诺亚·弗林(雅各布·艾洛蒂饰)度过了她人生中最浪漫的一个夏天。但现在诺亚要去哈佛了,艾儿要回到高中开始自己的高三生活。她不得不进行一段异地恋,和她最好的朋友李(乔尔·考特尼饰)一起进入她梦寐以求的大学,而且她与英俊、有魅力的新同学马尔科(泰勒·佩雷斯饰)的亲密友谊也带来了一系列麻烦。当诺亚与一名看似完美的大学女孩(麦茜·理查森·塞勒斯饰)走得很近,艾儿不得不认清自己对他的信任程度,认清自己内心真正喜欢的人。

Video
ID : 1
Format : HEVC
Format/Info : High Efficiency Video Coding
Format profile : Main 10@L5@Main
HDR format : SMPTE ST 2086, HDR10 compatible
Codec ID : V_MPEGH/ISO/HEVC
Duration : 2 h 10 min
Bit rate : 15.9 Mb/s
Width : 3 840 pixels
Height : 2 160 pixels
Display aspect ratio : 16:9
Frame rate mode : Constant
Frame rate : 24.000 FPS
Color space : YUV
Chroma subsampling : 4:2:0 (Type 2)
Bit depth : 10 bits
Bits/(Pixel*Frame) : 0.080
Stream size : 14.5 GiB (96%)
Default : Yes
Forced : No
Color range : Limited
Color primaries : BT.2020
Transfer characteristics : PQ
Matrix coefficients : BT.2020 non-constant
Mastering display color primaries : Display P3
Mastering display luminance : min: 0.0001 cd/m2, max: 1000 cd/m2
Maximum Content Light Level : 10000 cd/m2
Maximum Frame-Average Light Level : 819 cd/m2

Audio
ID : 2
Format : E-AC-3
Format/Info : Enhanced AC-3
Commercial name : Dolby Digital Plus
Codec ID : A_EAC3
Duration : 2 h 12 min
Bit rate mode : Constant
Bit rate : 640 kb/s
Channel(s) : 6 channels
Channel layout : L R C LFE Ls Rs
Sampling rate : 48.0 kHz
Frame rate : 31.250 FPS (1536 SPF)
Compression mode : Lossy
Stream size : 608 MiB (4%)
Language : English
Service kind : Complete Main
Default : Yes
Forced : No

Text #1
ID : 3
Format : UTF-8
Codec ID : S_TEXT/UTF8
Codec ID/Info : UTF-8 Plain Text
Duration : 2 h 9 min
Bit rate : 81 b/s
Frame rate : 0.298 FPS
Count of elements : 2311
Stream size : 76.6 KiB (0%)
Title : [CC]
Language : English
Default : No
Forced : No

Text #2
ID : 4
Format : UTF-8
Codec ID : S_TEXT/UTF8
Codec ID/Info : UTF-8 Plain Text
Duration : 2 h 10 min
Bit rate : 102 b/s
Frame rate : 0.240 FPS
Count of elements : 1880
Stream size : 98.0 KiB (0%)
Language : Arabic
Default : No
Forced : No

Text #3
ID : 5
Format : UTF-8
Codec ID : S_TEXT/UTF8
Codec ID/Info : UTF-8 Plain Text
Duration : 2 h 10 min
Bit rate : 54 b/s
Frame rate : 0.238 FPS
Count of elements : 1862
Stream size : 52.5 KiB (0%)
Language : Czech
Default : No
Forced : No

Text #4
ID : 6
Format : UTF-8
Codec ID : S_TEXT/UTF8
Codec ID/Info : UTF-8 Plain Text
Duration : 2 h 9 min
Bit rate : 56 b/s
Frame rate : 0.184 FPS
Count of elements : 1428
Stream size : 53.7 KiB (0%)
Language : Danish
Default : No
Forced : No

Text #5
ID : 7
Format : UTF-8
Codec ID : S_TEXT/UTF8
Codec ID/Info : UTF-8 Plain Text
Duration : 2 h 10 min
Bit rate : 58 b/s
Frame rate : 0.236 FPS
Count of elements : 1847
Stream size : 56.3 KiB (0%)
Language : German
Default : No
Forced : No

Text #6
ID : 8
Format : UTF-8
Codec ID : S_TEXT/UTF8
Codec ID/Info : UTF-8 Plain Text
Duration : 2 h 10 min
Bit rate : 89 b/s
Frame rate : 0.230 FPS
Count of elements : 1798
Stream size : 85.3 KiB (0%)
Language : Greek
Default : No
Forced : No

Text #7
ID : 9
Format : UTF-8
Codec ID : S_TEXT/UTF8
Codec ID/Info : UTF-8 Plain Text
Duration : 2 h 10 min
Bit rate : 54 b/s
Frame rate : 0.228 FPS
Count of elements : 1782
Stream size : 52.3 KiB (0%)
Language : Spanish
Default : No
Forced : No

Text #8
ID : 10
Format : UTF-8
Codec ID : S_TEXT/UTF8
Codec ID/Info : UTF-8 Plain Text
Duration : 2 h 10 min
Bit rate : 58 b/s
Frame rate : 0.237 FPS
Count of elements : 1856
Stream size : 55.5 KiB (0%)
Title : European
Language : Spanish
Default : No
Forced : No

Text #9
ID : 11
Format : UTF-8
Codec ID : S_TEXT/UTF8
Codec ID/Info : UTF-8 Plain Text
Duration : 2 h 10 min
Bit rate : 50 b/s
Frame rate : 0.203 FPS
Count of elements : 1585
Stream size : 48.6 KiB (0%)
Language : Finnish
Default : No
Forced : No

Text #10
ID : 12
Format : UTF-8
Codec ID : S_TEXT/UTF8
Codec ID/Info : UTF-8 Plain Text
Duration : 2 h 10 min
Bit rate : 50 b/s
Frame rate : 0.221 FPS
Count of elements : 1728
Stream size : 48.5 KiB (0%)
Language : French
Default : No
Forced : No

Text #11
ID : 13
Format : UTF-8
Codec ID : S_TEXT/UTF8
Codec ID/Info : UTF-8 Plain Text
Duration : 2 h 9 min
Bit rate : 104 b/s
Frame rate : 0.243 FPS
Count of elements : 1884
Stream size : 98.4 KiB (0%)
Language : Hebrew
Default : No
Forced : No

Text #12
ID : 14
Format : UTF-8
Codec ID : S_TEXT/UTF8
Codec ID/Info : UTF-8 Plain Text
Duration : 2 h 9 min
Bit rate : 47 b/s
Frame rate : 0.234 FPS
Count of elements : 1812
Stream size : 45.2 KiB (0%)
Language : Croatian
Default : No
Forced : No

Text #13
ID : 15
Format : UTF-8
Codec ID : S_TEXT/UTF8
Codec ID/Info : UTF-8 Plain Text
Duration : 2 h 10 min
Bit rate : 55 b/s
Frame rate : 0.218 FPS
Count of elements : 1706
Stream size : 52.8 KiB (0%)
Language : Hungarian
Default : No
Forced : No

Text #14
ID : 16
Format : UTF-8
Codec ID : S_TEXT/UTF8
Codec ID/Info : UTF-8 Plain Text
Duration : 2 h 10 min
Bit rate : 49 b/s
Frame rate : 0.238 FPS
Count of elements : 1860
Stream size : 47.3 KiB (0%)
Language : Indonesian
Default : No
Forced : No

Text #15
ID : 17
Format : UTF-8
Codec ID : S_TEXT/UTF8
Codec ID/Info : UTF-8 Plain Text
Duration : 2 h 10 min
Bit rate : 56 b/s
Frame rate : 0.222 FPS
Count of elements : 1736
Stream size : 53.7 KiB (0%)
Language : Italian
Default : No
Forced : No

Text #16
ID : 18
Format : UTF-8
Codec ID : S_TEXT/UTF8
Codec ID/Info : UTF-8 Plain Text
Duration : 2 h 10 min
Bit rate : 54 b/s
Frame rate : 0.227 FPS
Count of elements : 1772
Stream size : 51.7 KiB (0%)
Language : Japanese
Default : No
Forced : No

Text #17
ID : 19
Format : UTF-8
Codec ID : S_TEXT/UTF8
Codec ID/Info : UTF-8 Plain Text
Duration : 2 h 10 min
Bit rate : 66 b/s
Frame rate : 0.242 FPS
Count of elements : 1890
Stream size : 63.2 KiB (0%)
Language : Korean
Default : No
Forced : No

Text #18
ID : 20
Format : UTF-8
Codec ID : S_TEXT/UTF8
Codec ID/Info : UTF-8 Plain Text
Duration : 2 h 9 min
Bit rate : 48 b/s
Frame rate : 0.243 FPS
Count of elements : 1887
Stream size : 46.2 KiB (0%)
Language : Malay
Default : No
Forced : No

Text #19
ID : 21
Format : UTF-8
Codec ID : S_TEXT/UTF8
Codec ID/Info : UTF-8 Plain Text
Duration : 2 h 10 min
Bit rate : 54 b/s
Frame rate : 0.224 FPS
Count of elements : 1753
Stream size : 52.0 KiB (0%)
Language : Norwegian Bokmal
Default : No
Forced : No

Text #20
ID : 22
Format : UTF-8
Codec ID : S_TEXT/UTF8
Codec ID/Info : UTF-8 Plain Text
Duration : 2 h 9 min
Bit rate : 54 b/s
Frame rate : 0.206 FPS
Count of elements : 1597
Stream size : 51.5 KiB (0%)
Language : Dutch
Default : No
Forced : No

Text #21
ID : 23
Format : UTF-8
Codec ID : S_TEXT/UTF8
Codec ID/Info : UTF-8 Plain Text
Duration : 2 h 9 min
Bit rate : 52 b/s
Frame rate : 0.237 FPS
Count of elements : 1837
Stream size : 49.6 KiB (0%)
Language : Polish
Default : No
Forced : No

Text #22
ID : 24
Format : UTF-8
Codec ID : S_TEXT/UTF8
Codec ID/Info : UTF-8 Plain Text
Duration : 2 h 10 min
Bit rate : 54 b/s
Frame rate : 0.224 FPS
Count of elements : 1749
Stream size : 51.6 KiB (0%)
Language : Portuguese
Default : No
Forced : No

Text #23
ID : 25
Format : UTF-8
Codec ID : S_TEXT/UTF8
Codec ID/Info : UTF-8 Plain Text
Duration : 2 h 10 min
Bit rate : 57 b/s
Frame rate : 0.238 FPS
Count of elements : 1859
Stream size : 54.9 KiB (0%)
Title : Brazilian
Language : Portuguese
Default : No
Forced : No

Text #24
ID : 26
Format : UTF-8
Codec ID : S_TEXT/UTF8
Codec ID/Info : UTF-8 Plain Text
Duration : 2 h 10 min
Bit rate : 62 b/s
Frame rate : 0.239 FPS
Count of elements : 1871
Stream size : 59.8 KiB (0%)
Language : Romanian
Default : No
Forced : No

Text #25
ID : 27
Format : UTF-8
Codec ID : S_TEXT/UTF8
Codec ID/Info : UTF-8 Plain Text
Duration : 2 h 10 min
Bit rate : 94 b/s
Frame rate : 0.226 FPS
Count of elements : 1768
Stream size : 90.2 KiB (0%)
Language : Russian
Default : No
Forced : No

Text #26
ID : 28
Format : UTF-8
Codec ID : S_TEXT/UTF8
Codec ID/Info : UTF-8 Plain Text
Duration : 2 h 10 min
Bit rate : 52 b/s
Frame rate : 0.207 FPS
Count of elements : 1620
Stream size : 50.5 KiB (0%)
Language : Swedish
Default : No
Forced : No

Text #27
ID : 29
Format : UTF-8
Codec ID : S_TEXT/UTF8
Codec ID/Info : UTF-8 Plain Text
Duration : 2 h 10 min
Bit rate : 157 b/s
Frame rate : 0.243 FPS
Count of elements : 1899
Stream size : 150 KiB (0%)
Language : Thai
Default : No
Forced : No

Text #28
ID : 30
Format : UTF-8
Codec ID : S_TEXT/UTF8
Codec ID/Info : UTF-8 Plain Text
Duration : 2 h 10 min
Bit rate : 54 b/s
Frame rate : 0.239 FPS
Count of elements : 1867
Stream size : 52.4 KiB (0%)
Language : Turkish
Default : No
Forced : No

Text #29
ID : 31
Format : UTF-8
Codec ID : S_TEXT/UTF8
Codec ID/Info : UTF-8 Plain Text
Duration : 2 h 10 min
Bit rate : 86 b/s
Frame rate : 0.241 FPS
Count of elements : 1887
Stream size : 82.1 KiB (0%)
Language : Ukrainian
Default : No
Forced : No

Text #30
ID : 32
Format : UTF-8
Codec ID : S_TEXT/UTF8
Codec ID/Info : UTF-8 Plain Text
Duration : 2 h 10 min
Bit rate : 79 b/s
Frame rate : 0.239 FPS
Count of elements : 1868
Stream size : 76.3 KiB (0%)
Language : Vietnamese
Default : No
Forced : No

Text #31
ID : 33
Format : UTF-8
Codec ID : S_TEXT/UTF8
Codec ID/Info : UTF-8 Plain Text
Duration : 2 h 10 min
Bit rate : 57 b/s
Frame rate : 0.243 FPS
Count of elements : 1902
Stream size : 55.2 KiB (0%)
Title : 中文(简体)
Language : 中文
Default : No
Forced : No

Text #32
ID : 34
Format : UTF-8
Codec ID : S_TEXT/UTF8
Codec ID/Info : UTF-8 Plain Text
Duration : 2 h 10 min
Bit rate : 57 b/s
Frame rate : 0.243 FPS
Count of elements : 1900
Stream size : 55.2 KiB (0%)
Title : 中文(繁体)
Language : 中文
Default : No
Forced : No


资源速度为零或资源敏感被和谐时,推荐使用qBittorrent等下载软件,有条件的推荐115更好的下载软件!

下载地址:


游客,如果您要查看本帖隐藏内容请回复






上一篇:劫匪 [简繁中字] / The Highwaymen (2019) 4K高清版本下载
下一篇:亲吻亭3 [简繁中字] /The Kissing Booth 3 (2021) 4K高清版本下载
回复

使用道具 举报

2

主题

1683

帖子

4667

积分

4K家园VIP

Rank: 9Rank: 9Rank: 9

积分
4667
发表于 2022-7-17 22:16:48 | 显示全部楼层
额.....这个可以有
回复 支持 反对

使用道具 举报

2

主题

1627

帖子

4481

积分

4K家园VIP

Rank: 9Rank: 9Rank: 9

积分
4481
发表于 2022-7-21 17:31:01 | 显示全部楼层
楼猪辛苦了,支持一下分享好资源
回复 支持 反对

使用道具 举报

48

主题

1601

帖子

4619

积分

4K家园VIP

Rank: 9Rank: 9Rank: 9

积分
4619
发表于 2022-7-29 23:32:18 | 显示全部楼层
确实不错,顶先
回复 支持 反对

使用道具 举报

4

主题

1432

帖子

4132

积分

中级会员

Rank: 4

积分
4132
发表于 2022-7-31 16:49:15 | 显示全部楼层
打酱油的人拉,回复下赚取积分
回复 支持 反对

使用道具 举报

0

主题

1193

帖子

3593

积分

4K家园VIP

Rank: 9Rank: 9Rank: 9

积分
3593
发表于 2022-8-5 21:56:09 | 显示全部楼层
LZ敢整点更有创意的不?兄弟们等着围观捏~
回复 支持 反对

使用道具 举报

您需要登录后才可以回帖 登录 | 立即注册

本版积分规则

精彩图文
Archiver|手机版|TAG|Sitemap|新帖|专题|联系我们:邮箱: 4kjia.com@gmail.com   

4k家园   ©2019