[4K电影] 致所有我曾爱过的男孩2 [简繁中字] (2021) 4K高清版本下载

[复制链接]

2163

主题

2306

帖子

1万

积分

超级版主

Rank: 8Rank: 8

积分
16861
 楼主| 发表于 2022-7-17 22:53:35 | 显示全部楼层 |阅读模式
QQ图片20220717224753_副本.png

◎译  名 致所有我曾爱过的男孩2/To All the Boys I've Loved Before 2/爱的过去进行式2(台)/致所有我曾爱过的男孩:P.S.我仍然爱你/致所有的男孩:附言,我仍然爱你
◎片  名 To All The Boys: P.S. I Still Love You
◎年  代 2020
◎产  地 美国
◎类  别 剧情/爱情
◎语  言 英语
◎上映日期 2020-02-12(美国)
◎IMDb评分 6.0/10 from 38020 users
◎IMDb链接 https://www.imdb.com/title/tt9354842/
◎豆瓣评分 6.4/10 from 13817 users
◎豆瓣链接 https://douban.com/subject/30395081/
◎片  长 101分钟
◎导  演 迈克尔·费穆格纳瑞 Michael Fimognari
◎编  剧 索菲娅·阿尔瓦雷斯 Sofia Alvarez / 珍妮·汉 Jenny Han
◎主  演 诺亚·琴蒂内奥 Noah Centineo
        拉娜·康多 Lana Condor
        乔丹·费舍 Jordan Fisher
        贾娜尔·帕里希 Janel Parrish
        罗斯·巴特勒 Ross Butler
        约翰·考伯特 John Corbett
        埃米利娅·巴拉纳茨 Emilija Baranac
        安娜·卡思卡特 Anna Cathcart
        特雷佐·马霍洛 Trezzo Mahoro
        吉尔·莫里森 Jill Morrison
        霍兰德·泰勒 Holland Taylor
        莎拉尤·拉奧 Sarayu Blue


◎简  介


  新的一年开始了,拉拉·简(拉娜·康多饰)和彼得(诺亚·琴蒂内奥饰)不用再假装成情侣了,因为他们成为了真正的情侣。拉拉·简准备把自己所有珍贵的第一次(初吻、第一次约会以及第一个情人节)都奉献给彼得。她发现自己更依赖基蒂和玛戈特(安娜·卡思卡特和贾娜尔·帕里希饰演)、克里斯(玛德琳娜·亚瑟饰演)和出人意料的新伙伴斯托米(霍兰德·泰勒饰演),帮助她管理在此人生新篇章中滋生的复杂情绪,即平衡人际关系和发现自我。但是当另一位曾收到过拉拉·简的旧情书的人 — 约翰·安布罗斯(乔丹·费舍饰)— 再次进入她的生活时,她必须比以往任何时候都更加依赖自己,因为她面临着第一个真正的难题:她能同时爱着两个男生吗?

Video
ID : 1
Format : HEVC
Format/Info : High Efficiency Video Coding
Format profile : Main 10@L5@Main
HDR format : SMPTE ST 2086, HDR10 compatible
Codec ID : V_MPEGH/ISO/HEVC
Duration : 1 h 41 min
Bit rate : 14.8 Mb/s
Width : 3 840 pixels
Height : 2 160 pixels
Display aspect ratio : 16:9
Frame rate mode : Constant
Frame rate : 23.976 (24000/1001) FPS
Color space : YUV
Chroma subsampling : 4:2:0 (Type 2)
Bit depth : 10 bits
Bits/(Pixel*Frame) : 0.075
Stream size : 10.5 GiB (96%)
Default : Yes
Forced : No
Color range : Limited
Color primaries : BT.2020
Transfer characteristics : PQ
Matrix coefficients : BT.2020 non-constant
Mastering display color primaries : Display P3
Mastering display luminance : min: 0.0001 cd/m2, max: 1000 cd/m2
Maximum Content Light Level : 1075 cd/m2
Maximum Frame-Average Light Level : 204 cd/m2

Audio
ID : 2
Format : E-AC-3
Format/Info : Enhanced AC-3
Commercial name : Dolby Digital Plus
Codec ID : A_EAC3
Duration : 1 h 42 min
Bit rate mode : Constant
Bit rate : 640 kb/s
Channel(s) : 6 channels
Channel layout : L R C LFE Ls Rs
Sampling rate : 48.0 kHz
Frame rate : 31.250 FPS (1536 SPF)
Compression mode : Lossy
Stream size : 469 MiB (4%)
Language : English
Service kind : Complete Main
Default : Yes
Forced : No

Text #1
ID : 3
Format : UTF-8
Codec ID : S_TEXT/UTF8
Codec ID/Info : UTF-8 Plain Text
Duration : 1 h 40 min
Bit rate : 80 b/s
Frame rate : 0.296 FPS
Count of elements : 1794
Stream size : 59.4 KiB (0%)
Title : [CC]
Language : English
Default : No
Forced : No

Text #2
ID : 4
Format : UTF-8
Codec ID : S_TEXT/UTF8
Codec ID/Info : UTF-8 Plain Text
Duration : 1 h 40 min
Bit rate : 108 b/s
Frame rate : 0.250 FPS
Count of elements : 1507
Stream size : 79.7 KiB (0%)
Language : Arabic
Default : No
Forced : No

Text #3
ID : 5
Format : UTF-8
Codec ID : S_TEXT/UTF8
Codec ID/Info : UTF-8 Plain Text
Duration : 1 h 39 min
Bit rate : 58 b/s
Frame rate : 0.236 FPS
Count of elements : 1414
Stream size : 43.0 KiB (0%)
Language : Czech
Default : No
Forced : No

Text #4
ID : 6
Format : UTF-8
Codec ID : S_TEXT/UTF8
Codec ID/Info : UTF-8 Plain Text
Duration : 1 h 40 min
Bit rate : 58 b/s
Frame rate : 0.236 FPS
Count of elements : 1425
Stream size : 43.3 KiB (0%)
Language : Danish
Default : No
Forced : No

Text #5
ID : 7
Format : UTF-8
Codec ID : S_TEXT/UTF8
Codec ID/Info : UTF-8 Plain Text
Duration : 1 h 40 min
Bit rate : 57 b/s
Frame rate : 0.244 FPS
Count of elements : 1473
Stream size : 42.1 KiB (0%)
Language : German
Default : No
Forced : No

Text #6
ID : 8
Format : UTF-8
Codec ID : S_TEXT/UTF8
Codec ID/Info : UTF-8 Plain Text
Duration : 1 h 40 min
Bit rate : 101 b/s
Frame rate : 0.243 FPS
Count of elements : 1468
Stream size : 75.0 KiB (0%)
Language : Greek
Default : No
Forced : No

Text #7
ID : 9
Format : UTF-8
Codec ID : S_TEXT/UTF8
Codec ID/Info : UTF-8 Plain Text
Duration : 1 h 40 min
Bit rate : 58 b/s
Frame rate : 0.244 FPS
Count of elements : 1476
Stream size : 43.1 KiB (0%)
Language : Spanish
Default : No
Forced : No

Text #8
ID : 10
Format : UTF-8
Codec ID : S_TEXT/UTF8
Codec ID/Info : UTF-8 Plain Text
Duration : 1 h 40 min
Bit rate : 59 b/s
Frame rate : 0.249 FPS
Count of elements : 1505
Stream size : 44.0 KiB (0%)
Title : European
Language : Spanish
Default : No
Forced : No

Text #9
ID : 11
Format : UTF-8
Codec ID : S_TEXT/UTF8
Codec ID/Info : UTF-8 Plain Text
Duration : 1 h 40 min
Bit rate : 51 b/s
Frame rate : 0.240 FPS
Count of elements : 1450
Stream size : 37.9 KiB (0%)
Language : Finnish
Default : No
Forced : No

Text #10
ID : 12
Format : UTF-8
Codec ID : S_TEXT/UTF8
Codec ID/Info : UTF-8 Plain Text
Duration : 1 h 40 min
Bit rate : 62 b/s
Frame rate : 0.237 FPS
Count of elements : 1430
Stream size : 45.7 KiB (0%)
Language : French
Default : No
Forced : No

Text #11
ID : 13
Format : UTF-8
Codec ID : S_TEXT/UTF8
Codec ID/Info : UTF-8 Plain Text
Duration : 1 h 40 min
Bit rate : 106 b/s
Frame rate : 0.253 FPS
Count of elements : 1529
Stream size : 78.4 KiB (0%)
Language : Hebrew
Default : No
Forced : No

Text #12
ID : 14
Format : UTF-8
Codec ID : S_TEXT/UTF8
Codec ID/Info : UTF-8 Plain Text
Duration : 1 h 40 min
Bit rate : 174 b/s
Frame rate : 0.252 FPS
Count of elements : 1524
Stream size : 128 KiB (0%)
Language : Hindi
Default : No
Forced : No

Text #13
ID : 15
Format : UTF-8
Codec ID : S_TEXT/UTF8
Codec ID/Info : UTF-8 Plain Text
Duration : 1 h 40 min
Bit rate : 58 b/s
Frame rate : 0.242 FPS
Count of elements : 1464
Stream size : 43.2 KiB (0%)
Language : Hungarian
Default : No
Forced : No

Text #14
ID : 16
Format : UTF-8
Codec ID : S_TEXT/UTF8
Codec ID/Info : UTF-8 Plain Text
Duration : 1 h 40 min
Bit rate : 59 b/s
Frame rate : 0.253 FPS
Count of elements : 1526
Stream size : 44.1 KiB (0%)
Language : Indonesian
Default : No
Forced : No

Text #15
ID : 17
Format : UTF-8
Codec ID : S_TEXT/UTF8
Codec ID/Info : UTF-8 Plain Text
Duration : 1 h 40 min
Bit rate : 54 b/s
Frame rate : 0.236 FPS
Count of elements : 1428
Stream size : 40.4 KiB (0%)
Language : Italian
Default : No
Forced : No

Text #16
ID : 18
Format : UTF-8
Codec ID : S_TEXT/UTF8
Codec ID/Info : UTF-8 Plain Text
Duration : 1 h 40 min
Bit rate : 62 b/s
Frame rate : 0.256 FPS
Count of elements : 1545
Stream size : 46.2 KiB (0%)
Language : Japanese
Default : No
Forced : No

Text #17
ID : 19
Format : UTF-8
Codec ID : S_TEXT/UTF8
Codec ID/Info : UTF-8 Plain Text
Duration : 1 h 40 min
Bit rate : 79 b/s
Frame rate : 0.256 FPS
Count of elements : 1549
Stream size : 58.6 KiB (0%)
Language : Korean
Default : No
Forced : No

Text #18
ID : 20
Format : UTF-8
Codec ID : S_TEXT/UTF8
Codec ID/Info : UTF-8 Plain Text
Duration : 1 h 40 min
Bit rate : 61 b/s
Frame rate : 0.228 FPS
Count of elements : 1376
Stream size : 45.3 KiB (0%)
Language : Malay
Default : No
Forced : No

Text #19
ID : 21
Format : UTF-8
Codec ID : S_TEXT/UTF8
Codec ID/Info : UTF-8 Plain Text
Duration : 1 h 40 min
Bit rate : 55 b/s
Frame rate : 0.223 FPS
Count of elements : 1345
Stream size : 40.8 KiB (0%)
Language : Norwegian Bokmal
Default : No
Forced : No

Text #20
ID : 22
Format : UTF-8
Codec ID : S_TEXT/UTF8
Codec ID/Info : UTF-8 Plain Text
Duration : 1 h 40 min
Bit rate : 52 b/s
Frame rate : 0.206 FPS
Count of elements : 1247
Stream size : 38.7 KiB (0%)
Language : Dutch
Default : No
Forced : No

Text #21
ID : 23
Format : UTF-8
Codec ID : S_TEXT/UTF8
Codec ID/Info : UTF-8 Plain Text
Duration : 1 h 40 min
Bit rate : 52 b/s
Frame rate : 0.236 FPS
Count of elements : 1426
Stream size : 38.9 KiB (0%)
Language : Polish
Default : No
Forced : No

Text #22
ID : 24
Format : UTF-8
Codec ID : S_TEXT/UTF8
Codec ID/Info : UTF-8 Plain Text
Duration : 1 h 40 min
Bit rate : 62 b/s
Frame rate : 0.250 FPS
Count of elements : 1511
Stream size : 46.0 KiB (0%)
Language : Portuguese
Default : No
Forced : No

Text #23
ID : 25
Format : UTF-8
Codec ID : S_TEXT/UTF8
Codec ID/Info : UTF-8 Plain Text
Duration : 1 h 40 min
Bit rate : 57 b/s
Frame rate : 0.240 FPS
Count of elements : 1450
Stream size : 42.4 KiB (0%)
Title : Brazilian
Language : Portuguese
Default : No
Forced : No

Text #24
ID : 26
Format : UTF-8
Codec ID : S_TEXT/UTF8
Codec ID/Info : UTF-8 Plain Text
Duration : 1 h 40 min
Bit rate : 67 b/s
Frame rate : 0.232 FPS
Count of elements : 1400
Stream size : 49.4 KiB (0%)
Language : Romanian
Default : No
Forced : No

Text #25
ID : 27
Format : UTF-8
Codec ID : S_TEXT/UTF8
Codec ID/Info : UTF-8 Plain Text
Duration : 1 h 40 min
Bit rate : 95 b/s
Frame rate : 0.229 FPS
Count of elements : 1382
Stream size : 70.4 KiB (0%)
Language : Russian
Default : No
Forced : No

Text #26
ID : 28
Format : UTF-8
Codec ID : S_TEXT/UTF8
Codec ID/Info : UTF-8 Plain Text
Duration : 1 h 40 min
Bit rate : 58 b/s
Frame rate : 0.191 FPS
Count of elements : 1154
Stream size : 43.2 KiB (0%)
Language : Swedish
Default : No
Forced : No

Text #27
ID : 29
Format : UTF-8
Codec ID : S_TEXT/UTF8
Codec ID/Info : UTF-8 Plain Text
Duration : 1 h 40 min
Bit rate : 164 b/s
Frame rate : 0.257 FPS
Count of elements : 1553
Stream size : 121 KiB (0%)
Language : Thai
Default : No
Forced : No

Text #28
ID : 30
Format : UTF-8
Codec ID : S_TEXT/UTF8
Codec ID/Info : UTF-8 Plain Text
Duration : 1 h 40 min
Bit rate : 59 b/s
Frame rate : 0.216 FPS
Count of elements : 1303
Stream size : 43.9 KiB (0%)
Language : Turkish
Default : No
Forced : No

Text #29
ID : 31
Format : UTF-8
Codec ID : S_TEXT/UTF8
Codec ID/Info : UTF-8 Plain Text
Duration : 1 h 40 min
Bit rate : 89 b/s
Frame rate : 0.260 FPS
Count of elements : 1568
Stream size : 66.3 KiB (0%)
Language : Ukrainian
Default : No
Forced : No

Text #30
ID : 32
Format : UTF-8
Codec ID : S_TEXT/UTF8
Codec ID/Info : UTF-8 Plain Text
Duration : 1 h 40 min
Bit rate : 84 b/s
Frame rate : 0.251 FPS
Count of elements : 1514
Stream size : 62.4 KiB (0%)
Language : Vietnamese
Default : No
Forced : No

Text #31
ID : 33
Format : UTF-8
Codec ID : S_TEXT/UTF8
Codec ID/Info : UTF-8 Plain Text
Duration : 1 h 40 min
Bit rate : 72 b/s
Frame rate : 0.255 FPS
Count of elements : 1538
Stream size : 53.4 KiB (0%)
Title : 中文(简体)
Language : 中文
Default : No
Forced : No

Text #32
ID : 34
Format : UTF-8
Codec ID : S_TEXT/UTF8
Codec ID/Info : UTF-8 Plain Text
Duration : 1 h 40 min
Bit rate : 69 b/s
Frame rate : 0.255 FPS
Count of elements : 1538
Stream size : 51.1 KiB (0%)
Title : 中文(繁体)
Language : 中文
Default : No
Forced : No
资源速度为零或资源敏感被和谐时,推荐使用qBittorrent等下载软件,有条件的推荐115更好的下载软件!

下载地址:


游客,如果您要查看本帖隐藏内容请回复











上一篇:致所有我曾爱过的男孩 [简繁中字] (2018) 4K高清版本下载
下一篇:余波 / Aftershock‎ (2022) 4K高清版本下载
回复

使用道具 举报

2

主题

1354

帖子

3882

积分

4K家园VIP

Rank: 9Rank: 9Rank: 9

积分
3882
发表于 2022-7-17 22:53:38 | 显示全部楼层
正需要
回复 支持 反对

使用道具 举报

62

主题

1505

帖子

4395

积分

4K家园VIP

Rank: 9Rank: 9Rank: 9

积分
4395
发表于 2022-7-20 04:15:35 | 显示全部楼层
高手啊
回复 支持 反对

使用道具 举报

37

主题

1418

帖子

4070

积分

4K家园VIP

Rank: 9Rank: 9Rank: 9

积分
4070
发表于 2022-7-20 19:39:53 | 显示全部楼层
顶顶更健康
回复 支持 反对

使用道具 举报

您需要登录后才可以回帖 登录 | 立即注册

本版积分规则

精彩图文
Archiver|手机版|TAG|Sitemap|新帖|专题|联系我们:邮箱: 4kjia.com@gmail.com   

4k家园   ©2019