十三个原因 [简繁中字] (2021)/一,二,三,四季全 / 4K高清

[复制链接]

194

主题

217

帖子

2109

积分

版主

Rank: 7Rank: 7Rank: 7

积分
2109
 楼主| 发表于 2022-7-19 11:22:24 | 显示全部楼层 |阅读模式

1 (2)_副本.jpg

◎译  名 十三个原因 第一季 / 汉娜的遗言(台) / 十三个理由 / 13个原因
◎片  名 13 Reasons Why Season 1
◎年  代 2017
◎产  地 美国
◎类  别 剧情
◎语  言 英语
◎上映日期 2017-03-31(美国)
◎IMDb评分 7.5/10 from 285453 users
◎IMDb链接 https://www.imdb.com/title/tt1837492/
◎豆瓣评分 8.4/10 (41714人评价)
◎豆瓣链接 https://movie.douban.com/subject/6284624/
◎集  数 13
◎片  长 60分钟
◎导  演 凯尔·帕特里克·奥瓦内兹 Kyle Patrick Alvarez / 格雷格·阿拉基 Gregg Araki /卡尔·弗兰克林 Carl Franklin / 汤姆·麦卡锡 Tom McCarthy  / 虞琳敏 Jessica Yu
◎编  剧 布莱恩·约基 Brian Yorkey / 杰伊·阿什 Jay Asher / 尼克·谢夫 Nic Sheff  / Nathan Louis Jackson Nathan Louis Jackson / Diana Son Diana Son
◎演  员 迪兰·明奈特 Dylan Minnette
       凯瑟琳·兰福德 Katherine Langford
       克里斯蒂安·纳瓦罗 Christian Navarro
       艾莉莎·博 Alisha Boe
       布兰登·弗林 Brandon Flynn
       贾斯汀·普瑞提斯 Justin Prentice
       迈尔斯·赫尔泽 Miles Heizer
       罗斯·巴特勒 Ross Butler
       戴文·德鲁伊 Devin Druid
       艾米·哈格里夫斯 Amy Hargreaves
       德里克·卢克 Derek Luke
       凯特·沃什 Kate Walsh
       布莱恩·达西·詹姆斯 Brian d'Arcy James
       约什·汉密尔顿 Josh Hamilton
       安庆名惠子 Keiko Agena
       汤姆·艾弗瑞特·斯科特 Tom Everett Scott
       安妮-玛丽·奥尔森 Anne-Marie Olsen
       斯蒂文·韦伯 Steven Weber
       阿琼娜·亚历克苏丝 Ajiona Alexus
       蒂莫西·格兰德罗斯 Timothy Granaderos
       加布里埃拉·翰 Gabrielle Haugh
       汤米·多夫曼 Tommy Dorfman
       布兰登·拉瑞昆特 Brandon Larracuente
       Michele Selene Ang Michele Selene Ang
       索茜·贝肯 Sosie Bacon
       乔琪亚·惠格姆 Giorgia Whigham
       赛琳娜·戈麦斯 Selena Gomez
       亚历山大·戈麦斯 Alexander Gomez
       Nathan Louis Jackson Nathan Louis Jackson
       威廉·W·巴伯 William W. Barbour
       Julia Bicknell Julia Bicknell
       Thomas Higgins Thomas Higgins
       Felischa Marye Felischa Marye
       Nathaniel Oravetz Nathaniel Oravetz
       Austin Aaron Austin Aaron
       Kyle Naylor Kyle Naylor
       Rohit Kumar Rohit Kumar
       Megan Stack Megan Stack
       尼娜·奇克 Nina Cheek
       Michael Sadler Michael Sadler
       卡茜·亨德利 Cassie Hendry
       柯马里·摩尔 Ke'Mari Moore
       万恩·姆约维奇 Vaughn Myovich


◎简  介


  该剧根据2007年获得纽约时报最佳销售奖﹑Jay Asher所著的同名小说改篇,故事讲述一个少年Clay(Dylan Minnette 饰)在某夜收到一个鞋盒,内里装着自杀﹑已故的女同学Hannah(Katherine Langford 饰)的录音带。录音带中有指令,要把录音带从一个学生交到另一位手上,以向12位同学,用13个原因解释他们在她的死亡中,有着甚么身 份,以及她为什么要自杀。
Brandon Flynn饰演Justin,饰演一个篮球员,有着星级的实力,但亦有星级的自大﹑Christian Navarro饰演Tony,一个孤独的人,不过他会为正确的事站出来﹑Alisha Boe饰演Jessica,Hannah的朋友,直至一次恶性的吵架而分开。
Justin Prentice饰演放纵风格的Bryce,有着好看的外貌﹑Devin Druid饰演...

◎获奖情况 (共4项)

  第75届金球奖 (2018)
  电视类 剧情类剧集最佳女主角(提名) 凯瑟琳·兰福德  

  第27届MTV电影奖 (2018)
  MTV电影奖 剧集最佳表演(提名) 凯瑟琳·兰福德

  第22届金卫星奖 (2018)
  电视部门 最佳剧情类剧集(提名)
  电视部门 剧情类剧集最佳女主角(提名) 凯瑟琳·兰福德

Video
ID : 1
Format : HEVC
Format/Info : High Efficiency Video Coding
Format profile : Main 10@L5.1@High
HDR format : SMPTE ST 2086, HDR10 compatible
Codec ID : V_MPEGH/ISO/HEVC
Duration : 1 h 36 min
Bit rate : 15.5 Mb/s
Width : 3 840 pixels
Height : 2 160 pixels
Display aspect ratio : 16:9
Frame rate mode : Constant
Frame rate : 23.976 (23976/1000) FPS
Original frame rate : 23.976 (24000/1001) FPS
Color space : YUV
Chroma subsampling : 4:2:0 (Type 2)
Bit depth : 10 bits
Bits/(Pixel*Frame) : 0.078
Stream size : 10.5 GiB (96%)
Default : Yes
Forced : No
Color range : Limited
Color primaries : BT.2020
Transfer characteristics : PQ
Matrix coefficients : BT.2020 non-constant
Mastering display color primaries : Display P3
Mastering display luminance : min: 0.0001 cd/m2, max: 1000 cd/m2
Maximum Content Light Level : 1151 cd/m2
Maximum Frame-Average Light Level : 116 cd/m2

Audio
ID : 2
Format : E-AC-3
Format/Info : Enhanced AC-3
Commercial name : Dolby Digital Plus
Codec ID : A_EAC3
Duration : 1 h 38 min
Bit rate mode : Constant
Bit rate : 640 kb/s
Channel(s) : 6 channels
Channel layout : L R C LFE Ls Rs
Sampling rate : 48.0 kHz
Frame rate : 31.250 FPS (1536 SPF)
Compression mode : Lossy
Delay relative to video : 28 ms
Stream size : 451 MiB (4%)
Title : English
Language : English
Service kind : Complete Main
Default : Yes
Forced : No

Text #1
ID : 3
Format : UTF-8
Codec ID : S_TEXT/UTF8
Codec ID/Info : UTF-8 Plain Text
Duration : 1 h 36 min
Bit rate : 65 b/s
Count of elements : 1556
Stream size : 46.8 KiB (0%)
Title : SDH
Language : English
Default : No
Forced : No

Text #2
ID : 4
Format : UTF-8
Codec ID : S_TEXT/UTF8
Codec ID/Info : UTF-8 Plain Text
Duration : 1 h 36 min
Bit rate : 47 b/s
Count of elements : 1287
Stream size : 33.9 KiB (0%)
Title : Latin America
Language : Spanish
Default : No
Forced : No

Text #3
ID : 5
Format : UTF-8
Codec ID : S_TEXT/UTF8
Codec ID/Info : UTF-8 Plain Text
Duration : 1 h 36 min
Bit rate : 49 b/s
Count of elements : 1246
Stream size : 34.8 KiB (0%)
Language : Spanish
Default : No
Forced : No

Text #4
ID : 6
Format : UTF-8
Codec ID : S_TEXT/UTF8
Codec ID/Info : UTF-8 Plain Text
Duration : 1 h 36 min
Bit rate : 51 b/s
Count of elements : 1264
Stream size : 36.2 KiB (0%)
Title : Brazilian
Language : Portuguese
Default : No
Forced : No

Text #5
ID : 7
Format : UTF-8
Codec ID : S_TEXT/UTF8
Codec ID/Info : UTF-8 Plain Text
Duration : 1 h 36 min
Bit rate : 54 b/s
Count of elements : 1182
Stream size : 38.4 KiB (0%)
Language : German
Default : No
Forced : No

Text #6
ID : 8
Format : UTF-8
Codec ID : S_TEXT/UTF8
Codec ID/Info : UTF-8 Plain Text
Duration : 1 h 36 min
Bit rate : 49 b/s
Count of elements : 1237
Stream size : 34.8 KiB (0%)
Language : French
Default : No
Forced : No

Text #7
ID : 9
Format : UTF-8
Codec ID : S_TEXT/UTF8
Codec ID/Info : UTF-8 Plain Text
Duration : 1 h 36 min
Bit rate : 55 b/s
Count of elements : 1334
Stream size : 39.3 KiB (0%)
Title : 中文(简体)
Language : 中文
Default : No
Forced : No

Text #8
ID : 10
Format : UTF-8
Codec ID : S_TEXT/UTF8
Codec ID/Info : UTF-8 Plain Text
Duration : 1 h 36 min
Bit rate : 53 b/s
Count of elements : 1371
Stream size : 37.7 KiB (0%)
Title : 中文(繁体)
Language : 中文
Default : No
Forced : No


Text #9
ID : 11
Format : UTF-8
Codec ID : S_TEXT/UTF8
Codec ID/Info : UTF-8 Plain Text
Duration : 1 h 36 min
Bit rate : 88 b/s
Count of elements : 1320
Stream size : 63.0 KiB (0%)
Language : Arabic
Default : No
Forced : No

Text #10
ID : 12
Format : UTF-8
Codec ID : S_TEXT/UTF8
Codec ID/Info : UTF-8 Plain Text
Duration : 1 h 36 min
Bit rate : 52 b/s
Count of elements : 1149
Stream size : 37.4 KiB (0%)
Language : Czech
Default : No
Forced : No

Text #11
ID : 13
Format : UTF-8
Codec ID : S_TEXT/UTF8
Codec ID/Info : UTF-8 Plain Text
Duration : 1 h 36 min
Bit rate : 49 b/s
Count of elements : 1107
Stream size : 35.3 KiB (0%)
Language : Danish
Default : No
Forced : No

Text #12
ID : 14
Format : UTF-8
Codec ID : S_TEXT/UTF8
Codec ID/Info : UTF-8 Plain Text
Duration : 1 h 36 min
Bit rate : 49 b/s
Count of elements : 1159
Stream size : 35.0 KiB (0%)
Language : Dutch
Default : No
Forced : No

Text #13
ID : 15
Format : UTF-8
Codec ID : S_TEXT/UTF8
Codec ID/Info : UTF-8 Plain Text
Duration : 1 h 36 min
Bit rate : 88 b/s
Count of elements : 1286
Stream size : 62.7 KiB (0%)
Language : Greek
Default : No
Forced : No

Text #14
ID : 16
Format : UTF-8
Codec ID : S_TEXT/UTF8
Codec ID/Info : UTF-8 Plain Text
Duration : 1 h 36 min
Bit rate : 50 b/s
Count of elements : 1099
Stream size : 35.6 KiB (0%)
Language : Finnish
Default : No
Forced : No

Text #15
ID : 17
Format : UTF-8
Codec ID : S_TEXT/UTF8
Codec ID/Info : UTF-8 Plain Text
Duration : 1 h 36 min
Bit rate : 85 b/s
Count of elements : 1317
Stream size : 60.3 KiB (0%)
Language : Hebrew
Default : No
Forced : No

Text #16
ID : 18
Format : UTF-8
Codec ID : S_TEXT/UTF8
Codec ID/Info : UTF-8 Plain Text
Duration : 1 h 36 min
Bit rate : 47 b/s
Count of elements : 1152
Stream size : 33.9 KiB (0%)
Language : Hungarian
Default : No
Forced : No

Text #17
ID : 19
Format : UTF-8
Codec ID : S_TEXT/UTF8
Codec ID/Info : UTF-8 Plain Text
Duration : 1 h 36 min
Bit rate : 52 b/s
Count of elements : 1318
Stream size : 37.0 KiB (0%)
Language : Indonesian
Default : No
Forced : No

Text #18
ID : 20
Format : UTF-8
Codec ID : S_TEXT/UTF8
Codec ID/Info : UTF-8 Plain Text
Duration : 1 h 36 min
Bit rate : 50 b/s
Count of elements : 1243
Stream size : 35.7 KiB (0%)
Language : Italian
Default : No
Forced : No

Text #19
ID : 21
Format : UTF-8
Codec ID : S_TEXT/UTF8
Codec ID/Info : UTF-8 Plain Text
Duration : 1 h 36 min
Bit rate : 48 b/s
Count of elements : 1095
Stream size : 34.7 KiB (0%)
Language : Japanese
Default : No
Forced : No

Text #20
ID : 22
Format : UTF-8
Codec ID : S_TEXT/UTF8
Codec ID/Info : UTF-8 Plain Text
Duration : 1 h 36 min
Bit rate : 66 b/s
Count of elements : 1328
Stream size : 47.2 KiB (0%)
Language : Korean
Default : No
Forced : No

Text #21
ID : 23
Format : UTF-8
Codec ID : S_TEXT/UTF8
Codec ID/Info : UTF-8 Plain Text
Duration : 1 h 36 min
Bit rate : 49 b/s
Count of elements : 1145
Stream size : 35.3 KiB (0%)
Language : Norwegian Bokmal
Default : No
Forced : No

Text #22
ID : 24
Format : UTF-8
Codec ID : S_TEXT/UTF8
Codec ID/Info : UTF-8 Plain Text
Duration : 1 h 36 min
Bit rate : 48 b/s
Count of elements : 1267
Stream size : 34.4 KiB (0%)
Language : Polish
Default : No
Forced : No

Text #23
ID : 25
Format : UTF-8
Codec ID : S_TEXT/UTF8
Codec ID/Info : UTF-8 Plain Text
Duration : 1 h 36 min
Bit rate : 52 b/s
Count of elements : 1269
Stream size : 36.9 KiB (0%)
Language : Portuguese
Default : No
Forced : No

Text #24
ID : 26
Format : UTF-8
Codec ID : S_TEXT/UTF8
Codec ID/Info : UTF-8 Plain Text
Duration : 1 h 34 min
Bit rate : 56 b/s
Count of elements : 1160
Stream size : 39.5 KiB (0%)
Language : Romanian
Default : No
Forced : No

Text #25
ID : 27
Format : UTF-8
Codec ID : S_TEXT/UTF8
Codec ID/Info : UTF-8 Plain Text
Duration : 1 h 36 min
Bit rate : 84 b/s
Count of elements : 1304
Stream size : 59.9 KiB (0%)
Language : Russian
Default : No
Forced : No

Text #26
ID : 28
Format : UTF-8
Codec ID : S_TEXT/UTF8
Codec ID/Info : UTF-8 Plain Text
Duration : 1 h 36 min
Bit rate : 52 b/s
Count of elements : 1252
Stream size : 36.9 KiB (0%)
Language : Swedish
Default : No
Forced : No

Text #27
ID : 29
Format : UTF-8
Codec ID : S_TEXT/UTF8
Codec ID/Info : UTF-8 Plain Text
Duration : 1 h 36 min
Bit rate : 140 b/s
Count of elements : 1331
Stream size : 99.3 KiB (0%)
Language : Thai
Default : No
Forced : No

Text #28
ID : 30
Format : UTF-8
Codec ID : S_TEXT/UTF8
Codec ID/Info : UTF-8 Plain Text
Duration : 1 h 36 min
Bit rate : 52 b/s
Count of elements : 1169
Stream size : 37.1 KiB (0%)
Language : Turkish
Default : No
Forced : No

Text #29
ID : 31
Format : UTF-8
Codec ID : S_TEXT/UTF8
Codec ID/Info : UTF-8 Plain Text
Duration : 1 h 36 min
Bit rate : 72 b/s
Count of elements : 1263
Stream size : 51.4 KiB (0%)
Language : Vietnamese
Default : No
Forced : No


下载地址:(1-4季资源)

游客,如果您要查看本帖隐藏内容请回复

游客,如果您要查看本帖隐藏内容请回复

游客,如果您要查看本帖隐藏内容请回复

游客,如果您要查看本帖隐藏内容请回复

游客,如果您要查看本帖隐藏内容请回复

游客,如果您要查看本帖隐藏内容请回复




上一篇:太阳召唤 [简繁中字] (2021)/第一季8集全 / 4K高清下载
下一篇:暗黑(内嵌简繁中字) (2020) / 第三季全8集 / 4K高清下载
回复

使用道具 举报

1

主题

1377

帖子

4149

积分

4K家园VIP

Rank: 9Rank: 9Rank: 9

积分
4149
发表于 2022-7-19 11:22:43 | 显示全部楼层
好,很好,非常好!
回复 支持 反对

使用道具 举报

0

主题

2

帖子

13

积分

新手上路

Rank: 1

积分
13
发表于 2022-7-19 11:42:23 | 显示全部楼层

报告!别开枪,我就是路过来看看的。。。
回复 支持 反对

使用道具 举报

0

主题

8337

帖子

1万

积分

4K家园VIP

Rank: 9Rank: 9Rank: 9

积分
19391
发表于 2022-7-19 11:51:23 | 显示全部楼层
太好啦&萬分感謝版主的無私發佈分享%
回复 支持 反对

使用道具 举报

60

主题

1500

帖子

4356

积分

4K家园VIP

Rank: 9Rank: 9Rank: 9

积分
4356
发表于 2022-7-20 02:31:11 | 显示全部楼层
发发呆,回回帖,工作结束~
回复 支持 反对

使用道具 举报

48

主题

1547

帖子

4451

积分

4K家园VIP

Rank: 9Rank: 9Rank: 9

积分
4451
发表于 2022-7-20 15:09:21 | 显示全部楼层
求沙发
回复 支持 反对

使用道具 举报

2

主题

1656

帖子

4510

积分

4K家园VIP

Rank: 9Rank: 9Rank: 9

积分
4510
发表于 2022-7-24 05:37:17 | 显示全部楼层
我也顶起出售广告位
回复 支持 反对

使用道具 举报

1

主题

1356

帖子

4086

积分

4K家园VIP

Rank: 9Rank: 9Rank: 9

积分
4086
发表于 2022-7-24 09:17:10 | 显示全部楼层
正需要
回复 支持 反对

使用道具 举报

您需要登录后才可以回帖 登录 | 立即注册

本版积分规则

精彩图文
Archiver|手机版|TAG|Sitemap|新帖|专题|联系我们:邮箱: 4kjia.com@gmail.com   

4k家园   ©2019