暗黑(内嵌简繁中字) (2020) / 第三季全8集 / 4K高清下载

[复制链接]

194

主题

217

帖子

2109

积分

版主

Rank: 7Rank: 7Rank: 7

积分
2109
 楼主| 发表于 2022-7-19 11:53:26 | 显示全部楼层 |阅读模式

p2609692563_副本.jpg

◎译  名 暗黑 第三季/暗(港/台)
◎片  名 Dark Season 3
◎年  代 2020
◎产  地 德国
◎类  别 剧情/悬疑
◎语  言 德语
◎上映日期 2020-06-27(德国)
◎IMDb评分  8.7/10 from 362336 users
◎IMDb链接  https://www.imdb.com/title/tt10414808/
◎豆瓣评分 9.3/10 from 39641 users
◎豆瓣链接 https://douban.com/subject/34442364/
◎片  长 60分钟
◎导  演 巴伦·博·欧达尔 Baran bo Odar
◎编  剧 巴伦·博·欧达尔 Baran bo Odar  / 扬特耶·弗里泽 Jantje Friese
◎演  员 路易斯·霍夫曼 Louis Hofmann
      卡罗莉内·艾希霍恩 Karoline Eichhorn
      玛雅·舍内 Maja Sch?ne
      丽莎·维卡里 Lisa Vicari
      耶迪斯·特里贝尔 J?rdis Triebel
      斯蒂芬·坎普沃斯 Stephan Kampwirth
      安德烈亚斯·皮特斯柯曼 Andreas Pietschmann
      莫里茨·杰恩 Moritz Jahn
      保罗·勒克斯 Paul Lux
      奥利弗·马苏奇 Oliver Masucci
      克里斯蒂安·哈切森 Christian Hutcherson
      吉娜·斯蒂比茨 Gina Stiebitz
      黛博拉·考夫曼 Deborah Kaufmann
      卡洛塔·凡·法尔肯海因 Carlotta von Falkenhayn
      克里斯蒂安·斯泰尔 Christian Steyer
      芭芭拉·纽塞 Barbara Nüsse
      马克·瓦斯科 Mark Waschke
      妮娜·克龙耶格尔 Nina Kronj?ger
      桑德拉·伯格曼 Sandra Borgmann
      达恩·伦纳德·利布伦茨 Daan Lennard Liebrenz
      沃尔夫拉姆·科赫 Wolfram Koch
      卡莉娜·N.维斯 Carina N. Wiese
      迪特里希·霍林德布穆尔 Dietrich Hollinderb?umer
      艾拉·李 Ella Lee
      安妮·拉特-波利 Anne Ratte-Polle
      马西米兰·迪尔 Maximilian Dirr
      塞巴斯蒂安·鲁道夫 Sebastian Rudolph
      莱娜·乌泽多夫斯基 Lena Urzendowsky
      克里斯蒂安·佩措尔德 Christian P?tzold
      马克斯·施梅尔普芬尼希 Max Schimmelpfennig
      安婕·特拉乌 Antje Traue
      安纳托·陶布曼 Anatole Taubman
      温弗里德·格拉泽德 Winfried Glatzeder
      克劳德·海因里希 Claude Heinrich
      莱亚·凡·艾肯 Lea van Acken
      安约卡·斯秋儿 Anjorka Strechel
      Pablo Striebeck Pablo Striebeck
      朱莉卡·詹金斯 Julika Jenkins
      班·福斯特 Ben Frost


◎简  介

  在第三季也是最终季中,《暗黑》突破时空的概念,得出了令人意外的结局。来到新世界后,乔纳斯试图弄明白这一个温登小镇对于他自己的命运有何意义,而留在另一个世界的人们试图打破扭曲时空的循环。两个世界,光明与黑暗。中间穿插着史诗般的悲情故事。

◎获奖情况 (共1项)

第68届美国音效剪辑协会奖 (2021)
  金卷轴奖 Best Sound Editing in Television - Long Form: Dialogue and ADR(提名)

Video
ID : 1
Format : HEVC
Format/Info : High Efficiency Video Coding
Format profile : Main 10@L5@Main
Codec ID : V_MPEGH/ISO/HEVC
Duration : 57 min 0 s
Bit rate : 11.6 Mb/s
Width : 3 840 pixels
Height : 2 160 pixels
Display aspect ratio : 16:9
Frame rate mode : Constant
Frame rate : 24.000 FPS
Color space : YUV
Chroma subsampling : 4:2:0
Bit depth : 10 bits
Bits/(Pixel*Frame) : 0.058
Stream size : 4.62 GiB (94%)
Default : Yes
Forced : No
Color range : Limited
Color primaries : BT.709
Transfer characteristics : BT.709
Matrix coefficients : BT.709

Audio
ID : 2
Format : E-AC-3 JOC
Format/Info : Enhanced AC-3 with Joint Object Coding
Commercial name : Dolby Digital Plus with Dolby Atmos
Codec ID : A_EAC3
Duration : 57 min 0 s
Bit rate mode : Constant
Bit rate : 768 kb/s
Channel(s) : 6 channels
Channel layout : L R C LFE Ls Rs
Sampling rate : 48.0 kHz
Frame rate : 31.250 FPS (1536 SPF)
Compression mode : Lossy
Stream size : 313 MiB (6%)
Title : German
Language : German
Service kind : Complete Main
Default : Yes
Forced : No
Complexity index : 16
Number of dynamic objects : 15
Bed channel count : 1 channel
Bed channel configuration : LFE

Text #1
ID : 3
Format : UTF-8
Codec ID : S_TEXT/UTF8
Codec ID/Info : UTF-8 Plain Text
Duration : 56 min 28 s
Bit rate : 32 b/s
Frame rate : 0.135 FPS
Count of elements : 456
Stream size : 13.4 KiB (0%)
Title : English
Language : English
Default : Yes
Forced : No

Text #2
ID : 4
Format : UTF-8
Codec ID : S_TEXT/UTF8
Codec ID/Info : UTF-8 Plain Text
Duration : 56 min 24 s
Bit rate : 46 b/s
Frame rate : 0.137 FPS
Count of elements : 464
Stream size : 19.2 KiB (0%)
Title : Arabic
Language : Arabic
Default : No
Forced : No

Text #3
ID : 5
Format : UTF-8
Codec ID : S_TEXT/UTF8
Codec ID/Info : UTF-8 Plain Text
Duration : 56 min 7 s
Bit rate : 30 b/s
Frame rate : 0.138 FPS
Count of elements : 466
Stream size : 12.6 KiB (0%)
Title : 中文(简体)
Language : 中文
Default : No
Forced : No

Text #4
ID : 6
Format : UTF-8
Codec ID : S_TEXT/UTF8
Codec ID/Info : UTF-8 Plain Text
Duration : 56 min 32 s
Bit rate : 30 b/s
Frame rate : 0.137 FPS
Count of elements : 466
Stream size : 12.7 KiB (0%)
Title : 中文(繁体)
Language : 中文
Default : No
Forced : No


Text #5
ID : 7
Format : UTF-8
Codec ID : S_TEXT/UTF8
Codec ID/Info : UTF-8 Plain Text
Duration : 56 min 25 s
Bit rate : 29 b/s
Frame rate : 0.130 FPS
Count of elements : 441
Stream size : 12.3 KiB (0%)
Title : Croatian
Language : Croatian
Default : No
Forced : No

Text #6
ID : 8
Format : UTF-8
Codec ID : S_TEXT/UTF8
Codec ID/Info : UTF-8 Plain Text
Duration : 53 min 35 s
Bit rate : 34 b/s
Frame rate : 0.144 FPS
Count of elements : 464
Stream size : 13.7 KiB (0%)
Title : Czech
Language : Czech
Default : No
Forced : No

Text #7
ID : 9
Format : UTF-8
Codec ID : S_TEXT/UTF8
Codec ID/Info : UTF-8 Plain Text
Duration : 56 min 23 s
Bit rate : 33 b/s
Frame rate : 0.131 FPS
Count of elements : 443
Stream size : 13.7 KiB (0%)
Title : Danish
Language : Danish
Default : No
Forced : No

Text #8
ID : 10
Format : UTF-8
Codec ID : S_TEXT/UTF8
Codec ID/Info : UTF-8 Plain Text
Duration : 54 min 19 s
Bit rate : 32 b/s
Frame rate : 0.131 FPS
Count of elements : 428
Stream size : 13.0 KiB (0%)
Title : Dutch
Language : Dutch
Default : No
Forced : No

Text #9
ID : 11
Format : UTF-8
Codec ID : S_TEXT/UTF8
Codec ID/Info : UTF-8 Plain Text
Duration : 53 min 36 s
Bit rate : 33 b/s
Frame rate : 0.136 FPS
Count of elements : 438
Stream size : 13.2 KiB (0%)
Title : Finnish
Language : Finnish
Default : No
Forced : No

Text #10
ID : 12
Format : UTF-8
Codec ID : S_TEXT/UTF8
Codec ID/Info : UTF-8 Plain Text
Duration : 53 min 35 s
Bit rate : 34 b/s
Frame rate : 0.142 FPS
Count of elements : 457
Stream size : 13.7 KiB (0%)
Title : French
Language : French
Default : No
Forced : No

Text #11
ID : 13
Format : UTF-8
Codec ID : S_TEXT/UTF8
Codec ID/Info : UTF-8 Plain Text
Duration : 53 min 9 s
Bit rate : 63 b/s
Frame rate : 0.177 FPS
Count of elements : 564
Stream size : 24.7 KiB (0%)
Title : German
Language : German
Default : No
Forced : No

Text #12
ID : 14
Format : UTF-8
Codec ID : S_TEXT/UTF8
Codec ID/Info : UTF-8 Plain Text
Duration : 5 s 208 ms
Bit rate : 90 b/s
Frame rate : 0.384 FPS
Count of elements : 2
Stream size : 59.0 Bytes (0%)
Title : Forced
Language : German
Default : No
Forced : Yes

Text #13
ID : 15
Format : UTF-8
Codec ID : S_TEXT/UTF8
Codec ID/Info : UTF-8 Plain Text
Duration : 56 min 6 s
Bit rate : 56 b/s
Frame rate : 0.134 FPS
Count of elements : 452
Stream size : 23.4 KiB (0%)
Title : Greek
Language : Greek
Default : No
Forced : No

Text #14
ID : 16
Format : UTF-8
Codec ID : S_TEXT/UTF8
Codec ID/Info : UTF-8 Plain Text
Duration : 56 min 29 s
Bit rate : 47 b/s
Frame rate : 0.137 FPS
Count of elements : 465
Stream size : 19.5 KiB (0%)
Title : Hebrew
Language : Hebrew
Default : No
Forced : No

Text #15
ID : 17
Format : UTF-8
Codec ID : S_TEXT/UTF8
Codec ID/Info : UTF-8 Plain Text
Duration : 53 min 35 s
Bit rate : 34 b/s
Frame rate : 0.139 FPS
Count of elements : 447
Stream size : 13.4 KiB (0%)
Title : Hungarian
Language : Hungarian
Default : No
Forced : No

Text #16
ID : 18
Format : UTF-8
Codec ID : S_TEXT/UTF8
Codec ID/Info : UTF-8 Plain Text
Duration : 56 min 28 s
Bit rate : 32 b/s
Frame rate : 0.136 FPS
Count of elements : 461
Stream size : 13.3 KiB (0%)
Title : Indonesian
Language : Indonesian
Default : No
Forced : No

Text #17
ID : 19
Format : UTF-8
Codec ID : S_TEXT/UTF8
Codec ID/Info : UTF-8 Plain Text
Duration : 56 min 29 s
Bit rate : 33 b/s
Frame rate : 0.136 FPS
Count of elements : 460
Stream size : 13.9 KiB (0%)
Title : Italian
Language : Italian
Default : No
Forced : No

Text #18
ID : 20
Format : UTF-8
Codec ID : S_TEXT/UTF8
Codec ID/Info : UTF-8 Plain Text
Duration : 56 min 28 s
Bit rate : 28 b/s
Frame rate : 0.129 FPS
Count of elements : 436
Stream size : 11.7 KiB (0%)
Title : Japanese
Language : Japanese
Default : No
Forced : No

Text #19
ID : 21
Format : UTF-8
Codec ID : S_TEXT/UTF8
Codec ID/Info : UTF-8 Plain Text
Duration : 56 min 27 s
Bit rate : 35 b/s
Frame rate : 0.137 FPS
Count of elements : 463
Stream size : 14.9 KiB (0%)
Title : Korean
Language : Korean
Default : No
Forced : No

Text #20
ID : 22
Format : UTF-8
Codec ID : S_TEXT/UTF8
Codec ID/Info : UTF-8 Plain Text
Duration : 56 min 29 s
Bit rate : 33 b/s
Frame rate : 0.137 FPS
Count of elements : 464
Stream size : 13.9 KiB (0%)
Title : Malay
Language : Malay
Default : No
Forced : No

Text #21
ID : 23
Format : UTF-8
Codec ID : S_TEXT/UTF8
Codec ID/Info : UTF-8 Plain Text
Duration : 56 min 29 s
Bit rate : 32 b/s
Frame rate : 0.130 FPS
Count of elements : 441
Stream size : 13.3 KiB (0%)
Title : Norwegian Bokmal
Language : Norwegian Bokmal
Default : No
Forced : No

Text #22
ID : 24
Format : UTF-8
Codec ID : S_TEXT/UTF8
Codec ID/Info : UTF-8 Plain Text
Duration : 56 min 27 s
Bit rate : 31 b/s
Frame rate : 0.136 FPS
Count of elements : 459
Stream size : 13.1 KiB (0%)
Title : Polish
Language : Polish
Default : No
Forced : No

Text #23
ID : 25
Format : UTF-8
Codec ID : S_TEXT/UTF8
Codec ID/Info : UTF-8 Plain Text
Duration : 53 min 39 s
Bit rate : 33 b/s
Frame rate : 0.143 FPS
Count of elements : 460
Stream size : 13.1 KiB (0%)
Title : Portuguese
Language : Portuguese
Default : No
Forced : No

Text #24
ID : 26
Format : UTF-8
Codec ID : S_TEXT/UTF8
Codec ID/Info : UTF-8 Plain Text
Duration : 53 min 38 s
Bit rate : 31 b/s
Frame rate : 0.143 FPS
Count of elements : 460
Stream size : 12.6 KiB (0%)
Title : Brazilian Portuguese
Language : Portuguese
Default : No
Forced : No

Text #25
ID : 27
Format : UTF-8
Codec ID : S_TEXT/UTF8
Codec ID/Info : UTF-8 Plain Text
Duration : 54 min 38 s
Bit rate : 33 b/s
Frame rate : 0.140 FPS
Count of elements : 458
Stream size : 13.6 KiB (0%)
Title : Romanian
Language : Romanian
Default : No
Forced : No

Text #26
ID : 28
Format : UTF-8
Codec ID : S_TEXT/UTF8
Codec ID/Info : UTF-8 Plain Text
Duration : 56 min 29 s
Bit rate : 50 b/s
Frame rate : 0.134 FPS
Count of elements : 454
Stream size : 20.7 KiB (0%)
Title : Russian
Language : Russian
Default : No
Forced : No

Text #27
ID : 29
Format : UTF-8
Codec ID : S_TEXT/UTF8
Codec ID/Info : UTF-8 Plain Text
Duration : 56 min 29 s
Bit rate : 32 b/s
Frame rate : 0.133 FPS
Count of elements : 451
Stream size : 13.3 KiB (0%)
Title : Spanish
Language : Spanish
Default : No
Forced : No

Text #28
ID : 30
Format : UTF-8
Codec ID : S_TEXT/UTF8
Codec ID/Info : UTF-8 Plain Text
Duration : 56 min 29 s
Bit rate : 32 b/s
Frame rate : 0.135 FPS
Count of elements : 456
Stream size : 13.4 KiB (0%)
Title : European Spanish
Language : Spanish
Default : No
Forced : No

Text #29
ID : 31
Format : UTF-8
Codec ID : S_TEXT/UTF8
Codec ID/Info : UTF-8 Plain Text
Duration : 54 min 19 s
Bit rate : 33 b/s
Frame rate : 0.136 FPS
Count of elements : 442
Stream size : 13.4 KiB (0%)
Title : Swedish
Language : Swedish
Default : No
Forced : No

Text #30
ID : 32
Format : UTF-8
Codec ID : S_TEXT/UTF8
Codec ID/Info : UTF-8 Plain Text
Duration : 56 min 29 s
Bit rate : 79 b/s
Frame rate : 0.138 FPS
Count of elements : 466
Stream size : 33.0 KiB (0%)
Title : Thai
Language : Thai
Default : No
Forced : No

Text #31
ID : 33
Format : UTF-8
Codec ID : S_TEXT/UTF8
Codec ID/Info : UTF-8 Plain Text
Duration : 56 min 29 s
Bit rate : 31 b/s
Frame rate : 0.133 FPS
Count of elements : 451
Stream size : 13.2 KiB (0%)
Title : Turkish
Language : Turkish
Default : No
Forced : No

Text #32
ID : 34
Format : UTF-8
Codec ID : S_TEXT/UTF8
Codec ID/Info : UTF-8 Plain Text
Duration : 56 min 28 s
Bit rate : 43 b/s
Frame rate : 0.137 FPS
Count of elements : 463
Stream size : 17.9 KiB (0%)
Title : Vietnamese
Language : Vietnamese
Default : No
Forced : No
下载地址:

游客,如果您要查看本帖隐藏内容请回复







上一篇:十三个原因 [简繁中字] (2021)/一,二,三,四季全 / 4K高清
下一篇:寂静之海 [简繁中字] (2021)/第一季8集全 / 4K高清下载
回复

使用道具 举报

1

主题

1395

帖子

4015

积分

4K家园VIP

Rank: 9Rank: 9Rank: 9

积分
4015
发表于 2022-7-19 11:53:34 来自手机 | 显示全部楼层
占位编辑
回复 支持 反对

使用道具 举报

56

主题

1554

帖子

4546

积分

4K家园VIP

Rank: 9Rank: 9Rank: 9

积分
4546
发表于 2022-7-19 11:53:35 | 显示全部楼层
OMG!介是啥东东!!!
回复 支持 反对

使用道具 举报

2

主题

1359

帖子

3945

积分

4K家园VIP

Rank: 9Rank: 9Rank: 9

积分
3945
发表于 2022-7-19 13:28:45 来自手机 | 显示全部楼层
路过
回复 支持 反对

使用道具 举报

41

主题

1537

帖子

4443

积分

4K家园VIP

Rank: 9Rank: 9Rank: 9

积分
4443
发表于 2022-7-19 14:27:26 | 显示全部楼层
啥玩应呀
回复 支持 反对

使用道具 举报

0

主题

6

帖子

38

积分

新手上路

Rank: 1

积分
38
发表于 2022-7-19 23:34:08 | 显示全部楼层
113333333333333333
回复 支持 反对

使用道具 举报

4

主题

1444

帖子

4176

积分

4K家园VIP

Rank: 9Rank: 9Rank: 9

积分
4176
发表于 2022-7-20 11:19:49 | 显示全部楼层
支持楼主,用户楼主,楼主英明呀!!!
回复 支持 反对

使用道具 举报

您需要登录后才可以回帖 登录 | 立即注册

本版积分规则

精彩图文
Archiver|手机版|TAG|Sitemap|新帖|专题|联系我们:邮箱: 4kjia.com@gmail.com   

4k家园   ©2019