[4K电影] 余波 / Aftershock‎ (2022) 4K高清版本下载

[复制链接]

2163

主题

2306

帖子

1万

积分

超级版主

Rank: 8Rank: 8

积分
16861
 楼主| 发表于 2022-7-19 20:51:08 | 显示全部楼层 |阅读模式

QQ图片20220719204627_副本.png

◎标  题 余波
◎片  名 Aftershock
◎年  代 2022
◎产  地 美国
◎类  别 纪录片
◎语  言 英语
◎上映日期 2022-01-23(圣丹斯电影节) / 2022-07-19(美国网络)
◎IMDb评分 7.2/10 from 38 users
◎IMDb链接 https://www.imdb.com/title/tt16376478/
◎豆瓣评分 0/10 from 0 users
◎豆瓣链接 https://movie.douban.com/subject/35694764/
◎片  长 86分钟
◎导  演 保拉·艾瑟特 Paula Eiselt
       托娅·刘易斯 Tonya Lewis Lee


◎简  介


  在两名年轻女性因分娩并发症死亡后,两个失去亲人的家庭激励活动人士、助产士和医生应对当今美国最紧迫的危机之一:美国孕产妇健康危机。

Video
ID : 1
Format : HEVC
Format/Info : High Efficiency Video Coding
Format profile : Main 10@L5.1@Main
Codec ID : V_MPEGH/ISO/HEVC
Duration : 1 h 27 min
Bit rate : 13.4 Mb/s
Width : 3 840 pixels
Height : 2 160 pixels
Display aspect ratio : 16:9
Frame rate mode : Constant
Frame rate : 23.976 (24000/1001) FPS
Color space : YUV
Chroma subsampling : 4:2:0
Bit depth : 10 bits
Bits/(Pixel*Frame) : 0.068
Stream size : 8.18 GiB (96%)
Default : Yes
Forced : No

Audio
ID : 2
Format : E-AC-3
Format/Info : Enhanced AC-3
Commercial name : Dolby Digital Plus
Codec ID : A_EAC3
Duration : 1 h 27 min
Bit rate mode : Constant
Bit rate : 256 kb/s
Channel(s) : 6 channels
Channel layout : L R C LFE Ls Rs
Sampling rate : 48.0 kHz
Frame rate : 31.250 FPS (1536 SPF)
Compression mode : Lossy
Stream size : 160 MiB (2%)
Language : English
Service kind : Complete Main
Default : Yes
Forced : No

Text #1
ID : 3
Format : UTF-8
Codec ID : S_TEXT/UTF8
Codec ID/Info : UTF-8 Plain Text
Title : English [SDH]
Language : English
Default : No
Forced : No

Text #2
ID : 4
Format : UTF-8
Codec ID : S_TEXT/UTF8
Codec ID/Info : UTF-8 Plain Text
Title : Spanish [SDH]
Language : Spanish
Default : No
Forced : No


资源速度为零或资源敏感被和谐时,推荐使用qBittorrent等下载软件,有条件的推荐115更好的下载软件!

下载地址:


游客,如果您要查看本帖隐藏内容请回复






上一篇:致所有我曾爱过的男孩2 [简繁中字] (2021) 4K高清版本下载
下一篇:男人 / Men (2022) 4K高清版本下载
回复

使用道具 举报

14

主题

1244

帖子

3722

积分

4K家园VIP

Rank: 9Rank: 9Rank: 9

积分
3722
发表于 2022-7-19 20:51:12 | 显示全部楼层
顶起顶起顶起
回复 支持 反对

使用道具 举报

2

主题

1438

帖子

4152

积分

中级会员

Rank: 4

积分
4152
发表于 2022-7-19 21:45:43 | 显示全部楼层
哈哈,我只看看不说话
回复 支持 反对

使用道具 举报

66

主题

1549

帖子

4511

积分

4K家园VIP

Rank: 9Rank: 9Rank: 9

积分
4511
发表于 2022-7-20 00:48:37 | 显示全部楼层
你们要是有4K资源记得分享,别小气
回复 支持 反对

使用道具 举报

2

主题

1315

帖子

3963

积分

4K家园VIP

Rank: 9Rank: 9Rank: 9

积分
3963
发表于 2022-7-20 02:13:12 | 显示全部楼层
4K应该不错,我也下个看看
回复 支持 反对

使用道具 举报

60

主题

1500

帖子

4356

积分

4K家园VIP

Rank: 9Rank: 9Rank: 9

积分
4356
发表于 2022-7-20 02:54:51 | 显示全部楼层
感谢分享
回复 支持 反对

使用道具 举报

0

主题

8337

帖子

1万

积分

4K家园VIP

Rank: 9Rank: 9Rank: 9

积分
19391
发表于 2022-7-20 09:33:36 | 显示全部楼层
太好啦&萬分感謝版主的無私發佈分享%
回复 支持 反对

使用道具 举报

0

主题

50

帖子

186

积分

新手上路

Rank: 1

积分
186
发表于 2022-7-20 17:11:35 | 显示全部楼层
感谢分享,楼主辛苦了
回复 支持 反对

使用道具 举报

0

主题

1

帖子

6

积分

新手上路

Rank: 1

积分
6
发表于 2022-7-20 18:42:23 | 显示全部楼层
666666666
回复

使用道具 举报

您需要登录后才可以回帖 登录 | 立即注册

本版积分规则

精彩图文
Archiver|手机版|TAG|Sitemap|新帖|专题|联系我们:邮箱: 4kjia.com@gmail.com   

4k家园   ©2019