[4K电影] 前妻俱乐部[简繁中字]/ The First Wives Club (2021) 4K高清版本下载

[复制链接]

1780

主题

1859

帖子

1万

积分

超级版主

Rank: 8Rank: 8

积分
19465
 楼主| 发表于 2022-7-20 11:03:11 | 显示全部楼层 |阅读模式
本帖最后由 没完没了 于 2022-7-20 11:05 编辑

QQ图片20220720104829_副本.png
◎标  题 前妻俱乐部
◎译  名 大老婆俱乐部 / 第一夫人俱乐部 / 原配夫人俱乐部
◎片  名 The First Wives Club
◎年  代 1996
◎产  地 美国
◎类  别 喜剧
◎语  言 英语
◎上映日期 1996-11-14
◎IMDb评分 6.4/10 from 48837 users
◎IMDb链接 https://www.imdb.com/title/tt0116313/
◎豆瓣评分 6.9/10 from 2155 users
◎豆瓣链接 https://movie.douban.com/subject/1296865/
◎片  长 103 分钟
◎导  演 休·威尔逊 Hugh Wilson
◎编  剧 罗伯特·哈林 Robert Harling
◎演  员 黛安·基顿 Diane Keaton
       歌蒂·韩 Goldie Hawn
       贝特·米德勒 Bette Midler
       玛吉·史密斯 Maggie Smith
       爱德华·希伯特 Edward Hibbert
       戴布拉·莫克 Debra Monk
       斯蒂芬·门迪洛 Stephen Mendillo
       斯蒂芬·皮尔曼 Stephen Pearlman
       罗宾·莫尔斯 Robin Morse
       苏·西蒙斯 Sue Simmons
       J·K·西蒙斯 J.K. Simmons
       南茜·蒂科汀 Nancy Ticotin
       马拉·苏查雷特扎 Marla Sucharetza
       保罗·赫特 Paul Hecht
       爱德华·科赫 Edward I. Koch
       凯西·李·吉福德 Kathie Lee Gifford
       Aida Linares Aida Linares
       格洛丽亚·斯泰纳姆 Gloria Steinem
       伊万娜·特朗普 Ivana Trump
       阿里·格林伯格 Ari Greenberg
       格雷格·埃德尔曼 Gregg Edelman
       乔恩·斯图尔特 Jon Stewart
       维克多·加博 Victor Garber
       罗伯·莱纳 Rob Reiner
       史蒂芬·柯林斯 Stephen Collins
       海瑟·洛克莱尔 Heather Locklear
       彼得弗莱切特 Peter Frechette
       丹·哈达亚 Dan Hedaya
       马西娅·盖伊·哈登 Marcia Gay Harden
       休·威尔逊 Hugh Wilson
       伊丽莎白·伯克利 Elizabeth Berkley
       斯托卡特·詹宁 Stockard Channing
       詹姆斯·诺顿 James Naughton
       蒂莫西·奥利芬特 Timothy Olyphant
       丽亚·德拉利亚 Lea DeLaria
       詹妮弗·邓达斯 Jennifer Dundas
       特蕾莎·德普里斯特 Teresa DePriest
       理查德·肯索尔 Richard Council
       沃尔特·鲍比 Walter Bobbie
       菲利普·博斯科 Philip Bosco
       布隆森·皮诺切特 Bronson Pinchot
       迪娜·沃特斯 Dina Waters
       莎拉·杰茜卡·帕克 Sarah Jessica Parker
       凯特·伯顿 Kate Burton
       艾琳·哈卡特 Eileen Heckart


◎简  介

    三位大学好友布兰达(贝特•米德勒 饰)、埃利斯(歌蒂•韩 饰)、安妮黛安•基顿 饰)离开大学后各奔前程。但她们的婚姻是相似的,她们各自的丈夫都爱上了别的女人。虽然她们都把青春贡献给了自己的丈夫,协助丈夫名成利就,但她们还是无可避免都被丈夫抛弃了,成为了弃妇。三位昔日的好友成为了彼此之间的倾诉对象,难免得同病相怜一番。而她们更做出了一个重要的决定,团结一致的她们要对她们无情的丈夫们实行报复,组成了一支“前期俱乐部”,务求成功执行她们的计划……

Video
ID : 1
Format : HEVC
Format/Info : High Efficiency Video Coding
Format profile : Main 10@L5@High
HDR format : SMPTE ST 2086, HDR10 compatible
Codec ID : V_MPEGH/ISO/HEVC
Duration : 1 h 42 min
Bit rate : 24.9 Mb/s
Width : 3 840 pixels
Height : 2 076 pixels
Display aspect ratio : 1.85:1
Frame rate mode : Constant
Frame rate : 23.976 FPS
Color space : YUV
Chroma subsampling : 4:2:0 (Type 2)
Bit depth : 10 bits
Bits/(Pixel*Frame) : 0.130
Stream size : 17.8 GiB (98%)
Language : English
Default : Yes
Forced : No
Color range : Limited
Color primaries : BT.2020
Transfer characteristics : PQ
Matrix coefficients : BT.2020 non-constant
Mastering display color primaries : Display P3
Mastering display luminance : min: 0.0050 cd/m2, max: 1000 cd/m2
Maximum Content Light Level : 2008 cd/m2
Maximum Frame-Average Light Level : 612 cd/m2

Audio
ID : 2
Format : AC-3
Format/Info : Audio Coding 3
Commercial name : Dolby Digital
Codec ID : A_AC3
Duration : 1 h 42 min
Bit rate mode : Constant
Bit rate : 384 kb/s
Channel(s) : 6 channels
Channel layout : L R C LFE Ls Rs
Sampling rate : 48.0 kHz
Frame rate : 31.250 FPS (1536 SPF)
Compression mode : Lossy
Stream size : 281 MiB (2%)
Language : English
Service kind : Complete Main
Default : Yes
Forced : No

Text #1
ID : 3
Format : UTF-8
Codec ID : S_TEXT/UTF8
Codec ID/Info : UTF-8 Plain Text
Duration : 1 h 35 min
Bit rate : 110 b/s
Frame rate : 0.227 FPS
Count of elements : 1303
Stream size : 77.4 KiB (0%)
Language : Arabic
Default : No
Forced : No

Text #2
ID : 4
Format : UTF-8
Codec ID : S_TEXT/UTF8
Codec ID/Info : UTF-8 Plain Text
Duration : 1 h 36 min
Bit rate : 56 b/s
Frame rate : 0.288 FPS
Count of elements : 1670
Stream size : 40.2 KiB (0%)
Title : 中文(简体)
Language : 中文
Default : No
Forced : No


Text #3
ID : 5
Format : UTF-8
Codec ID : S_TEXT/UTF8
Codec ID/Info : UTF-8 Plain Text
Duration : 1 h 36 min
Bit rate : 57 b/s
Frame rate : 0.291 FPS
Count of elements : 1689
Stream size : 40.9 KiB (0%)
Title : 中文(繁体)
Language : 中文
Default : No
Forced : No

Text #4
ID : 6
Format : UTF-8
Codec ID : S_TEXT/UTF8
Codec ID/Info : UTF-8 Plain Text
Duration : 1 h 35 min
Bit rate : 64 b/s
Frame rate : 0.198 FPS
Count of elements : 1129
Stream size : 44.9 KiB (0%)
Language : Danish
Default : No
Forced : No

Text #5
ID : 7
Format : UTF-8
Codec ID : S_TEXT/UTF8
Codec ID/Info : UTF-8 Plain Text
Duration : 1 h 35 min
Bit rate : 72 b/s
Frame rate : 0.230 FPS
Count of elements : 1321
Stream size : 50.7 KiB (0%)
Language : German
Default : No
Forced : No

Text #6
ID : 8
Format : UTF-8
Codec ID : S_TEXT/UTF8
Codec ID/Info : UTF-8 Plain Text
Duration : 1 h 41 min
Bit rate : 93 b/s
Frame rate : 0.343 FPS
Count of elements : 2099
Stream size : 69.6 KiB (0%)
Language : English
Default : No
Forced : No

Text #7
ID : 9
Format : UTF-8
Codec ID : S_TEXT/UTF8
Codec ID/Info : UTF-8 Plain Text
Duration : 1 h 41 min
Bit rate : 98 b/s
Frame rate : 0.361 FPS
Count of elements : 2211
Stream size : 73.8 KiB (0%)
Title : SDH
Language : English
Default : No
Forced : No

Text #8
ID : 10
Format : UTF-8
Codec ID : S_TEXT/UTF8
Codec ID/Info : UTF-8 Plain Text
Duration : 1 h 36 min
Bit rate : 63 b/s
Frame rate : 0.259 FPS
Count of elements : 1500
Stream size : 44.9 KiB (0%)
Title : Latin American
Language : Spanish
Default : No
Forced : No

Text #9
ID : 11
Format : UTF-8
Codec ID : S_TEXT/UTF8
Codec ID/Info : UTF-8 Plain Text
Duration : 1 h 37 min
Bit rate : 66 b/s
Frame rate : 0.210 FPS
Count of elements : 1223
Stream size : 47.3 KiB (0%)
Language : Finnish
Default : No
Forced : No

Text #10
ID : 12
Format : UTF-8
Codec ID : S_TEXT/UTF8
Codec ID/Info : UTF-8 Plain Text
Duration : 1 h 35 min
Bit rate : 65 b/s
Frame rate : 0.263 FPS
Count of elements : 1506
Stream size : 45.9 KiB (0%)
Language : French
Default : No
Forced : No

Text #11
ID : 13
Format : UTF-8
Codec ID : S_TEXT/UTF8
Codec ID/Info : UTF-8 Plain Text
Duration : 1 h 40 min
Bit rate : 198 b/s
Frame rate : 0.284 FPS
Count of elements : 1704
Stream size : 145 KiB (0%)
Language : Hindi
Default : No
Forced : No

Text #12
ID : 14
Format : UTF-8
Codec ID : S_TEXT/UTF8
Codec ID/Info : UTF-8 Plain Text
Duration : 1 h 35 min
Bit rate : 74 b/s
Frame rate : 0.232 FPS
Count of elements : 1329
Stream size : 52.0 KiB (0%)
Language : Italian
Default : No
Forced : No

Text #13
ID : 15
Format : UTF-8
Codec ID : S_TEXT/UTF8
Codec ID/Info : UTF-8 Plain Text
Duration : 1 h 34 min
Bit rate : 58 b/s
Frame rate : 0.173 FPS
Count of elements : 984
Stream size : 41.0 KiB (0%)
Language : Dutch
Default : No
Forced : No

Text #14
ID : 16
Format : UTF-8
Codec ID : S_TEXT/UTF8
Codec ID/Info : UTF-8 Plain Text
Duration : 1 h 35 min
Bit rate : 67 b/s
Frame rate : 0.227 FPS
Count of elements : 1303
Stream size : 47.5 KiB (0%)
Language : Norwegian
Default : No
Forced : No

Text #15
ID : 17
Format : UTF-8
Codec ID : S_TEXT/UTF8
Codec ID/Info : UTF-8 Plain Text
Duration : 1 h 37 min
Bit rate : 73 b/s
Frame rate : 0.232 FPS
Count of elements : 1354
Stream size : 52.4 KiB (0%)
Title : Brazilian
Language : Portuguese
Default : No
Forced : No

Text #16
ID : 18
Format : UTF-8
Codec ID : S_TEXT/UTF8
Codec ID/Info : UTF-8 Plain Text
Duration : 1 h 36 min
Bit rate : 71 b/s
Frame rate : 0.248 FPS
Count of elements : 1437
Stream size : 50.5 KiB (0%)
Language : Portuguese
Default : No
Forced : No

Text #17
ID : 19
Format : UTF-8
Codec ID : S_TEXT/UTF8
Codec ID/Info : UTF-8 Plain Text
Duration : 1 h 35 min
Bit rate : 65 b/s
Frame rate : 0.217 FPS
Count of elements : 1245
Stream size : 46.0 KiB (0%)
Language : Swedish
Default : No
Forced : No

Text #18
ID : 20
Format : UTF-8
Codec ID : S_TEXT/UTF8
Codec ID/Info : UTF-8 Plain Text
Duration : 1 h 35 min
Bit rate : 135 b/s
Frame rate : 0.227 FPS
Count of elements : 1295
Stream size : 94.5 KiB (0%)
Language : Thai
Default : No
Forced : No

Text #19
ID : 21
Format : UTF-8
Codec ID : S_TEXT/UTF8
Codec ID/Info : UTF-8 Plain Text
Duration : 1 h 35 min
Bit rate : 77 b/s
Frame rate : 0.228 FPS
Count of elements : 1308
Stream size : 54.5 KiB (0%)
Language : Turkish
Default : No
Forced : No

Text #20
ID : 22
Format : UTF-8
Codec ID : S_TEXT/UTF8
Codec ID/Info : UTF-8 Plain Text
Duration : 1 h 40 min
Bit rate : 99 b/s
Frame rate : 0.283 FPS
Count of elements : 1702
Stream size : 73.2 KiB (0%)
Language : Vietnamese
Default : No
Forced : No

Text #21
ID : 23
Format : UTF-8
Codec ID : S_TEXT/UTF8
Codec ID/Info : UTF-8 Plain Text
Duration : 1 h 35 min
Bit rate : 63 b/s
Frame rate : 0.234 FPS
Count of elements : 1341
Stream size : 44.2 KiB (0%)
Title : Cantonese
Language : Chinese
Default : No
Forced : No

Menu
00:00:00.000 : en:Chapter 1
00:02:06.167 : en:Chapter 2
00:05:55.980 : en:Chapter 3
00:07:34.913 : en:Chapter 4
00:08:57.078 : en:Chapter 5
00:09:39.621 : en:Chapter 6
00:14:04.719 : en:Chapter 7
00:19:45.977 : en:Chapter 8
00:21:30.623 : en:Chapter 9
00:22:42.821 : en:Chapter 10
00:24:37.727 : en:Chapter 11
00:25:36.661 : en:Chapter 12
00:29:36.234 : en:Chapter 13
00:32:57.435 : en:Chapter 14
00:34:28.526 : en:Chapter 15
00:37:28.498 : en:Chapter 16
00:40:30.764 : en:Chapter 17
00:41:41.209 : en:Chapter 18
00:43:46.292 : en:Chapter 19
00:45:01.368 : en:Chapter 20
00:48:23.111 : en:Chapter 21
00:51:03.938 : en:Chapter 22
00:53:09.314 : en:Chapter 23
00:56:04.197 : en:Chapter 24
00:58:19.791 : en:Chapter 25
01:00:13.780 : en:Chapter 26
01:05:14.080 : en:Chapter 27
01:07:07.068 : en:Chapter 28
01:15:36.119 : en:Chapter 29
01:17:41.202 : en:Chapter 30
01:18:27.332 : en:Chapter 31
01:27:33.920 : en:Chapter 32
01:30:02.235 : en:Chapter 33
01:31:52.679 : en:Chapter 34
01:35:53.044 : en:Chapter 35
01:36:38.965 : en:Chapter 36

资源速度为零或资源敏感被和谐时,推荐使用qBittorrent等下载软件,有条件的推荐115更好的下载软件!

下载地址:


游客,如果您要查看本帖隐藏内容请回复

游客,如果您要查看本帖隐藏内容请回复

游客,如果您要查看本帖隐藏内容请回复






上一篇:宽恕 / The Forgiven (2021) 4K高清版本下载
下一篇:马尔科姆先生的清单 / Mr.Malcolms.List (2022) 4K高清版本下载
回复

使用道具 举报

50

主题

1548

帖子

4480

积分

4K家园VIP

Rank: 9Rank: 9Rank: 9

积分
4480
发表于 2022-7-20 11:03:17 来自手机 | 显示全部楼层
好,很好,非常好!
回复 支持 反对

使用道具 举报

5

主题

1684

帖子

4630

积分

4K家园VIP

Rank: 9Rank: 9Rank: 9

积分
4630
发表于 2022-7-20 11:59:48 | 显示全部楼层
啥玩应呀
回复 支持 反对

使用道具 举报

0

主题

1368

帖子

4118

积分

4K家园VIP

Rank: 9Rank: 9Rank: 9

积分
4118
发表于 2022-7-20 12:24:57 来自手机 | 显示全部楼层
多发些资源啊
回复 支持 反对

使用道具 举报

1

主题

1614

帖子

4448

积分

4K家园VIP

Rank: 9Rank: 9Rank: 9

积分
4448
发表于 2022-7-20 14:01:53 | 显示全部楼层
多发些资源啊
回复 支持 反对

使用道具 举报

51

主题

1518

帖子

4374

积分

4K家园VIP

Rank: 9Rank: 9Rank: 9

积分
4374
发表于 2022-7-20 14:18:54 | 显示全部楼层
你们要是有4K资源记得分享,别小气
回复 支持 反对

使用道具 举报

0

主题

3

帖子

15

积分

新手上路

Rank: 1

积分
15
发表于 2022-7-20 14:32:59 | 显示全部楼层
好,很好,非常好!
回复 支持 反对

使用道具 举报

0

主题

2

帖子

9

积分

新手上路

Rank: 1

积分
9
发表于 2022-7-20 22:50:15 | 显示全部楼层
好好好
回复

使用道具 举报

0

主题

1

帖子

6

积分

新手上路

Rank: 1

积分
6
发表于 2022-7-22 00:36:21 | 显示全部楼层
第一次下资源,多谢楼主
回复 支持 反对

使用道具 举报

您需要登录后才可以回帖 登录 | 立即注册

本版积分规则

精彩图文
Archiver|手机版|TAG|Sitemap|新帖|专题|联系我们:邮箱: 4kjia.com@gmail.com   

4k家园   ©2019