[4K电影] 马尔科姆先生的清单 / Mr.Malcolms.List (2022) 4K高清版本下载

[复制链接]

2163

主题

2306

帖子

1万

积分

超级版主

Rank: 8Rank: 8

积分
16861
 楼主| 发表于 2022-7-21 15:56:13 | 显示全部楼层 |阅读模式
QQ图片20220721152910_副本.png

◎标  题 马尔科姆先生的清单
◎片  名 Mr.Malcolms.List
◎年  代 2022
◎产  地 美国
◎类  别 剧情 / 喜剧 / 爱情
◎语  言 英语
◎上映日期 2022-07-01(美国)
◎IMDb评分 5.8/10 from 610 users
◎IMDb链接 https://www.imdb.com/title/tt12545566/
◎豆瓣评分 0/10 from 0 users
◎豆瓣链接 https://movie.douban.com/subject/35101441/
◎片  长 115分钟
◎导  演 艾玛·霍莉·琼斯 Emma Holly Jones
                   苏珊妮·阿兰 Suzanne Allain
                   芙蕾达·平托 Freida Pinto
                   索佩·迪瑞苏 Sope Dirisu
                   阿什利·朴 Ashley Park
                   扎威·阿什顿 Zawe Ashton
                   西奥·詹姆斯 Theo James
                   森尚子 Naoko Mori
                   索菲·瓦瓦塞尔 Sophie Vavasseur
                   希安纳德·格雷戈里 Sianad Gregory
                   艾玛·威利斯 Emma Willis
                   丹妮尔·瑞恩 Danielle Ryan
                   道恩·布拉德菲尔德 Dawn Bradfield
                   保罗·泰来克 Paul Tylak
                   迪维安·拉德瓦 Divian Ladwa
                   格里·奥布莱恩 Gerry OBrien
                   艾斯林·多伊尔 Aisling Doyle
                   蒂亚·安·贾因 Tia Ann Jain


◎简  介



       出身上流社会的茱莉亚(扎威·阿什顿 饰)被伦敦黄金单身汉马尔科姆先生(索佩·迪瑞苏 饰)拒绝,因为她不符合他对新娘的严苛要求清单上的一项。茱莉亚觉得自己受到了羞辱和排斥,于是找来朋友塞琳娜(芙蕾达·平托 饰)帮她报复马尔科姆,让他以为自己找到了完美的另一半,然后将他抛弃。
  当亨利(西奥·詹姆斯 饰)也开始向塞琳娜献殷勤,威胁到茱莉亚的安排时,这个计划似乎起了作用。随后笨手笨脚的卡西迪勋爵(奥利弗·杰森-科恩 饰)开始干涉四人复杂的关系,从未一帆风顺的真爱之路变得坎坷不平,马尔科姆先生想知道他是否找到了完美的女人,或者说是完美的骗局。

Video
ID : 1
Format : HEVC
Format/Info : High Efficiency Video Coding
Format profile : Main 10@L5@High
Codec ID : V_MPEGH/ISO/HEVC
Duration : 1 h 57 min
Bit rate : 11.9 Mb/s
Width : 3 836 pixels
Height : 1 600 pixels
Display aspect ratio : 2.40:1
Original display aspect ratio : 2.40:1
Frame rate mode : Constant
Frame rate : 23.976 FPS
Color space : YUV
Chroma subsampling : 4:2:0
Bit depth : 10 bits
Bits/(Pixel*Frame) : 0.081
Stream size : 9.77 GiB (97%)
Default : Yes
Forced : No
Color range : Limited
Color primaries : BT.709
Transfer characteristics : BT.709
Matrix coefficients : BT.709

Audio
ID : 2
Format : AC-3
Format/Info : Audio Coding 3
Commercial name : Dolby Digital
Codec ID : A_AC3
Duration : 1 h 57 min
Bit rate mode : Constant
Bit rate : 384 kb/s
Channel(s) : 6 channels
Channel layout : L R C LFE Ls Rs
Sampling rate : 48.0 kHz
Frame rate : 31.250 FPS (1536 SPF)
Compression mode : Lossy
Stream size : 323 MiB (3%)
Title : British
Language : English
Service kind : Complete Main
Default : Yes
Forced : No
资源速度为零或资源敏感被和谐时,推荐使用qBittorrent等下载软件,有条件的推荐115更好的下载软件!

下载地址:


游客,如果您要查看本帖隐藏内容请回复






上一篇:前妻俱乐部[简繁中字]/ The First Wives Club (2021) 4K高清版本下载
下一篇:无限爱可能 [简繁中字]/Anything's Possible (2022) 4K高清版本下载
回复

使用道具 举报

61

主题

1490

帖子

4294

积分

4K家园VIP

Rank: 9Rank: 9Rank: 9

积分
4294
发表于 2022-7-21 15:56:18 | 显示全部楼层
为毛老子总也抢不到沙发?!!
回复 支持 反对

使用道具 举报

1

主题

1428

帖子

4140

积分

4K家园VIP

Rank: 9Rank: 9Rank: 9

积分
4140
发表于 2022-7-22 00:05:22 | 显示全部楼层
是爷们的娘们的都帮顶!大力支持
回复 支持 反对

使用道具 举报

0

主题

8337

帖子

1万

积分

4K家园VIP

Rank: 9Rank: 9Rank: 9

积分
19391
发表于 2022-7-22 08:18:03 | 显示全部楼层
太好啦&萬分感謝版主的無私發佈分享%
回复 支持 反对

使用道具 举报

67

主题

1560

帖子

4498

积分

4K家园VIP

Rank: 9Rank: 9Rank: 9

积分
4498
发表于 2022-7-22 18:25:18 | 显示全部楼层
路过 帮顶 嘿嘿
回复 支持 反对

使用道具 举报

1

主题

1735

帖子

4815

积分

4K家园VIP

Rank: 9Rank: 9Rank: 9

积分
4815
发表于 2022-7-23 19:18:09 | 显示全部楼层
LZ帖子不给力,勉强给回复下吧
回复 支持 反对

使用道具 举报

0

主题

17

帖子

30

积分

新手上路

Rank: 1

积分
30
发表于 2022-7-24 02:24:58 来自手机 | 显示全部楼层
666666
回复

使用道具 举报

0

主题

1427

帖子

4101

积分

4K家园VIP

Rank: 9Rank: 9Rank: 9

积分
4101
发表于 2022-7-24 11:32:44 | 显示全部楼层
无论是不是沙发都得回复下
回复 支持 反对

使用道具 举报

您需要登录后才可以回帖 登录 | 立即注册

本版积分规则

精彩图文
Archiver|手机版|TAG|Sitemap|新帖|专题|联系我们:邮箱: 4kjia.com@gmail.com   

4k家园   ©2019