黑镜 [简繁中字] /Black Mirror (2017) 第四季全6集/4K高清版本下载

[复制链接]

194

主题

217

帖子

2109

积分

版主

Rank: 7Rank: 7Rank: 7

积分
2109
 楼主| 发表于 2022-7-21 20:49:46 | 显示全部楼层 |阅读模式
p2523419173_副本.jpg

◎译  名 黑镜 第四季 / 黑镜子 第四季
◎片  名 Black Mirror Season 4
◎年  代 2017
◎产  地 美国
◎类  别 剧情 / 科幻 / 惊悚
◎语  言 英语
◎上映日期 2017-12-29(美国)
◎IMDb评分 8.8/10 from 525626 users
◎IMDb链接 https://www.imdb.com/title/tt5710974
◎豆瓣评分 8.3/10 from 128651 users
◎豆瓣链接 https://movie.douban.com/subject/26898192
◎集  数 6
◎片  长 60分钟
◎导  演 托比·海恩斯 Toby Haynes / 朱迪·福斯特 Jodie Foster / 约翰·希尔寇特 John Hillcoat / 蒂莫西·范·帕腾 Timothy Van Patten / 大卫·斯雷德 David Slade / 柯尔姆·麦卡锡 Colm McCarthy
◎编  剧 查理·布鲁克 Charlie Brooker / 威廉·布里奇斯 William Bridges
◎主  演 杰西·普莱蒙 Jesse Plemons
       克里斯汀·米利欧缇 Cristin Milioti
       吉米·辛普森 Jimmi Simpson
       比利·马格努森 Billy Magnussen
       米凯拉·科尔 Michaela Coel
       奥赛·伊克希尔 Osy Ikhile
       罗丝玛丽·德薇特 Rosemarie DeWitt
       布伦娜·哈丁 Brenna Harding
       欧文·泰格 Owen Teague
       安吉拉·弗恩特 Angela Vint
       尼古拉斯·坎贝尔 Nicholas Campbell
       保罗·布朗斯坦 Paul Braunstein
       安德丽亚·瑞斯波罗格 Andrea Riseborough
       安东尼·威尔士 Anthony Welsh
       乔治娜·坎贝尔 Georgina Campbell
       乔 科尔 Joe Cole
       乔治·布莱顿 George Blagden
       格温妮丝·凯沃斯 Gwyneth Keyworth
       杰西·卡芙 Jessie Cave
       玛克辛·皮克 Maxine Peake
       克林特·戴尔 Clint Dyer
       道格拉斯·霍奇斯 Douglas Hodges
       利蒂希娅·赖特 Letitia Wright
       丹尼尔·莱派恩 Daniel Lapaine
       亚历山德拉·罗奇 Alexandra Roach
       亚伦·保尔 Aaron Paul
       布赖恩·佩蒂福 Brian Pettifer
       阿明·卡丽玛 Armin Karima
       詹姆斯·伊莱斯 James Eeles
       阿曼达·沃伦 Amanda Warren
       阿尔迪斯·霍吉 Aldis Hodge
       Sarah Abbott
       Kiran Sonia Sawar
       Andrew Gower
       Milanka Brooks
       邓普斯·布瑞克 Dempsey Bryk
       Tom Mulheron
       阿妮娅 霍奇 Aniya Hodge
       Paul G. Raymond
       Abby Quinn
       Nicky Torchia


◎简  介  


  《卡里斯特号》:罗伯特(杰西·普莱蒙 Jesse Plemons 饰)是一家游戏公司的技术总监,却因为内向怯懦的性格而无法得到同事和下属们的尊重。然而这一切都无关紧要,因为在家里,有一个甜美而又邪恶的秘密等待着他去享用。
  《大天使》:马莉(罗丝玛丽·德薇特 Rosemarie DeWitt 饰)为了保护自己的女儿不受伤害而加入了“大天使”计划。
  《鳄鱼》:面对曾经犯下的错误,是勇敢的面对,还是不惜一切手段消灭所有会导致秘密曝光的可能性?
  《DJ下台》:当人们的相爱分离全部交由精密的科学计算和管理软件来定夺,我们会迎来一个更好的世界吗?
  《铁头》:在一个人类快要被机器狗赶尽杀绝的世界里,为了得到唯一的希望,你愿意付出什么?
  《黑色博物馆》:妮希(莱蒂希娅·赖特 Letitia Wright 饰)步入了一间神秘而又古怪的博物馆之中,在那里,一件曾经人人趋之若鹜的稀世藏品等待着她。

◎获奖情况  

  第70届黄金时段艾美奖(2018)
  迷你剧/电视电影 最佳电视电影
  迷你剧/电视电影 最佳男主角(提名) 杰西·普莱蒙
  迷你剧/电视电影 最佳女配角(提名) 利蒂希娅·赖特
  迷你剧/电视电影 迷你剧/电视电影/剧情类特别节目最佳编剧 威廉·布里奇斯 / 查理·布鲁克

  第29届美国制片人工会奖(2018)
  最佳电视长片制片人奖

  第22届美国艺术指导工会奖(2018)
  电视奖 最佳电视电影/限制剧艺术指导

  第20届美国服装设计工会奖(2018)
  科幻/奇幻题材剧集最佳服装设计(提名) Maja Meschede

  第16届美国视觉效果协会奖(2018)
  最佳广告/广播节目CG动画角色(提名)

  第54届美国声音效果协会奖(2018)
  电视电影/迷你剧最佳音效

Video
ID : 1
Format : HEVC
Format/Info : High Efficiency Video Coding
Format profile : Main 10@L5@Main
HDR format : Dolby Vision, Version 1.0, dvhe.08.07, BL+RPU, HDR10 compatible / SMPTE ST 2086, HDR10 compatible
Codec ID : V_MPEGH/ISO/HEVC
Duration : 1 h 16 min
Bit rate : 15.7 Mb/s
Width : 3 840 pixels
Height : 2 160 pixels
Display aspect ratio : 16:9
Frame rate mode : Constant
Frame rate : 25.000 FPS
Color space : YUV
Chroma subsampling : 4:2:0 (Type 2)
Bit depth : 10 bits
Bits/(Pixel*Frame) : 0.076
Stream size : 8.37 GiB (96%)
Default : Yes
Forced : No
Color range : Limited
Color primaries : BT.2020
Transfer characteristics : PQ
Matrix coefficients : BT.2020 non-constant
Mastering display color primaries : Display P3
Mastering display luminance : min: 0.0050 cd/m2, max: 4000 cd/m2
Maximum Content Light Level : 3989 cd/m2
Maximum Frame-Average Light Level : 1149 cd/m2

Audio
ID : 2
Format : E-AC-3
Format/Info : Enhanced AC-3
Commercial name : Dolby Digital Plus
Codec ID : A_EAC3
Duration : 1 h 16 min
Bit rate mode : Constant
Bit rate : 640 kb/s
Channel(s) : 6 channels
Channel layout : L R C LFE Ls Rs
Sampling rate : 48.0 kHz
Frame rate : 31.250 FPS (1536 SPF)
Compression mode : Lossy
Stream size : 352 MiB (4%)
Language : English
Service kind : Complete Main
Default : Yes
Forced : No

Text #1
ID : 3
Format : UTF-8
Codec ID : S_TEXT/UTF8
Codec ID/Info : UTF-8 Plain Text
Duration : 1 h 14 min
Bit rate : 69 b/s
Frame rate : 0.265 FPS
Count of elements : 1178
Stream size : 37.7 KiB (0%)
Title : [CC]
Language : English
Default : Yes
Forced : No

Text #2
ID : 4
Format : UTF-8
Codec ID : S_TEXT/UTF8
Codec ID/Info : UTF-8 Plain Text
Duration : 1 h 16 min
Bit rate : 93 b/s
Frame rate : 0.216 FPS
Count of elements : 986
Stream size : 52.0 KiB (0%)
Language : Arabic
Default : No
Forced : No

Text #3
ID : 5
Format : UTF-8
Codec ID : S_TEXT/UTF8
Codec ID/Info : UTF-8 Plain Text
Duration : 1 h 14 min
Bit rate : 55 b/s
Frame rate : 0.238 FPS
Count of elements : 1068
Stream size : 30.4 KiB (0%)
Language : Czech
Default : No
Forced : No

Text #4
ID : 6
Format : UTF-8
Codec ID : S_TEXT/UTF8
Codec ID/Info : UTF-8 Plain Text
Duration : 1 h 16 min
Bit rate : 56 b/s
Frame rate : 0.203 FPS
Count of elements : 925
Stream size : 31.4 KiB (0%)
Language : Danish
Default : No
Forced : No

Text #5
ID : 7
Format : UTF-8
Codec ID : S_TEXT/UTF8
Codec ID/Info : UTF-8 Plain Text
Duration : 1 h 16 min
Bit rate : 59 b/s
Frame rate : 0.213 FPS
Count of elements : 975
Stream size : 33.4 KiB (0%)
Language : German
Default : No
Forced : No

Text #6
ID : 8
Format : UTF-8
Codec ID : S_TEXT/UTF8
Codec ID/Info : UTF-8 Plain Text
Duration : 1 h 14 min
Bit rate : 88 b/s
Frame rate : 0.229 FPS
Count of elements : 1026
Stream size : 48.6 KiB (0%)
Language : Greek
Default : No
Forced : No

Text #7
ID : 9
Format : UTF-8
Codec ID : S_TEXT/UTF8
Codec ID/Info : UTF-8 Plain Text
Duration : 1 h 14 min
Bit rate : 57 b/s
Frame rate : 0.220 FPS
Count of elements : 987
Stream size : 31.4 KiB (0%)
Language : Spanish
Default : No
Forced : No

Text #8
ID : 10
Format : UTF-8
Codec ID : S_TEXT/UTF8
Codec ID/Info : UTF-8 Plain Text
Duration : 1 h 16 min
Bit rate : 57 b/s
Frame rate : 0.215 FPS
Count of elements : 984
Stream size : 31.9 KiB (0%)
Title : European
Language : Spanish
Default : No
Forced : No

Text #9
ID : 11
Format : UTF-8
Codec ID : S_TEXT/UTF8
Codec ID/Info : UTF-8 Plain Text
Duration : 1 h 16 min
Bit rate : 48 b/s
Frame rate : 0.162 FPS
Count of elements : 742
Stream size : 27.1 KiB (0%)
Language : Finnish
Default : No
Forced : No

Text #10
ID : 12
Format : UTF-8
Codec ID : S_TEXT/UTF8
Codec ID/Info : UTF-8 Plain Text
Duration : 1 h 16 min
Bit rate : 58 b/s
Frame rate : 0.210 FPS
Count of elements : 960
Stream size : 32.6 KiB (0%)
Language : French
Default : No
Forced : No

Text #11
ID : 13
Format : UTF-8
Codec ID : S_TEXT/UTF8
Codec ID/Info : UTF-8 Plain Text
Duration : 1 h 14 min
Bit rate : 86 b/s
Frame rate : 0.218 FPS
Count of elements : 979
Stream size : 47.5 KiB (0%)
Language : Hebrew
Default : No
Forced : No

Text #12
ID : 14
Format : UTF-8
Codec ID : S_TEXT/UTF8
Codec ID/Info : UTF-8 Plain Text
Duration : 1 h 16 min
Bit rate : 49 b/s
Frame rate : 0.211 FPS
Count of elements : 966
Stream size : 27.5 KiB (0%)
Language : Croatian
Default : No
Forced : No

Text #13
ID : 15
Format : UTF-8
Codec ID : S_TEXT/UTF8
Codec ID/Info : UTF-8 Plain Text
Duration : 1 h 16 min
Bit rate : 54 b/s
Frame rate : 0.210 FPS
Count of elements : 958
Stream size : 30.4 KiB (0%)
Language : Hungarian
Default : No
Forced : No

Text #14
ID : 16
Format : UTF-8
Codec ID : S_TEXT/UTF8
Codec ID/Info : UTF-8 Plain Text
Duration : 1 h 16 min
Bit rate : 52 b/s
Frame rate : 0.214 FPS
Count of elements : 978
Stream size : 29.3 KiB (0%)
Language : Indonesian
Default : No
Forced : No

Text #15
ID : 17
Format : UTF-8
Codec ID : S_TEXT/UTF8
Codec ID/Info : UTF-8 Plain Text
Duration : 1 h 16 min
Bit rate : 65 b/s
Frame rate : 0.215 FPS
Count of elements : 979
Stream size : 36.3 KiB (0%)
Language : Icelandic
Default : No
Forced : No

Text #16
ID : 18
Format : UTF-8
Codec ID : S_TEXT/UTF8
Codec ID/Info : UTF-8 Plain Text
Duration : 1 h 16 min
Bit rate : 60 b/s
Frame rate : 0.200 FPS
Count of elements : 914
Stream size : 33.6 KiB (0%)
Language : Italian
Default : No
Forced : No

Text #17
ID : 19
Format : UTF-8
Codec ID : S_TEXT/UTF8
Codec ID/Info : UTF-8 Plain Text
Duration : 1 h 16 min
Bit rate : 53 b/s
Frame rate : 0.243 FPS
Count of elements : 1108
Stream size : 29.5 KiB (0%)
Language : Japanese
Default : No
Forced : No

Text #18
ID : 20
Format : UTF-8
Codec ID : S_TEXT/UTF8
Codec ID/Info : UTF-8 Plain Text
Duration : 1 h 16 min
Bit rate : 66 b/s
Frame rate : 0.216 FPS
Count of elements : 986
Stream size : 36.9 KiB (0%)
Language : Korean
Default : No
Forced : No

Text #19
ID : 21
Format : UTF-8
Codec ID : S_TEXT/UTF8
Codec ID/Info : UTF-8 Plain Text
Duration : 1 h 16 min
Bit rate : 52 b/s
Frame rate : 0.199 FPS
Count of elements : 906
Stream size : 29.5 KiB (0%)
Language : Norwegian Bokmal
Default : No
Forced : No

Text #20
ID : 22
Format : UTF-8
Codec ID : S_TEXT/UTF8
Codec ID/Info : UTF-8 Plain Text
Duration : 1 h 16 min
Bit rate : 48 b/s
Frame rate : 0.178 FPS
Count of elements : 814
Stream size : 27.3 KiB (0%)
Language : Dutch
Default : No
Forced : No

Text #21
ID : 23
Format : UTF-8
Codec ID : S_TEXT/UTF8
Codec ID/Info : UTF-8 Plain Text
Duration : 1 h 16 min
Bit rate : 44 b/s
Frame rate : 0.203 FPS
Count of elements : 927
Stream size : 24.9 KiB (0%)
Language : Polish
Default : No
Forced : No

Text #22
ID : 24
Format : UTF-8
Codec ID : S_TEXT/UTF8
Codec ID/Info : UTF-8 Plain Text
Duration : 1 h 16 min
Bit rate : 53 b/s
Frame rate : 0.209 FPS
Count of elements : 952
Stream size : 29.7 KiB (0%)
Language : Portuguese
Default : No
Forced : No

Text #23
ID : 25
Format : UTF-8
Codec ID : S_TEXT/UTF8
Codec ID/Info : UTF-8 Plain Text
Duration : 1 h 16 min
Bit rate : 51 b/s
Frame rate : 0.208 FPS
Count of elements : 950
Stream size : 28.9 KiB (0%)
Title : Brazilian
Language : Portuguese
Default : No
Forced : No

Text #24
ID : 26
Format : UTF-8
Codec ID : S_TEXT/UTF8
Codec ID/Info : UTF-8 Plain Text
Duration : 1 h 16 min
Bit rate : 54 b/s
Frame rate : 0.213 FPS
Count of elements : 973
Stream size : 30.1 KiB (0%)
Language : Romanian
Default : No
Forced : No

Text #25
ID : 27
Format : UTF-8
Codec ID : S_TEXT/UTF8
Codec ID/Info : UTF-8 Plain Text
Duration : 1 h 16 min
Bit rate : 84 b/s
Frame rate : 0.214 FPS
Count of elements : 976
Stream size : 47.3 KiB (0%)
Language : Russian
Default : No
Forced : No

Text #26
ID : 28
Format : UTF-8
Codec ID : S_TEXT/UTF8
Codec ID/Info : UTF-8 Plain Text
Duration : 1 h 16 min
Bit rate : 50 b/s
Frame rate : 0.192 FPS
Count of elements : 876
Stream size : 28.0 KiB (0%)
Language : Swedish
Default : No
Forced : No

Text #27
ID : 29
Format : UTF-8
Codec ID : S_TEXT/UTF8
Codec ID/Info : UTF-8 Plain Text
Duration : 1 h 16 min
Bit rate : 145 b/s
Frame rate : 0.216 FPS
Count of elements : 985
Stream size : 81.1 KiB (0%)
Language : Thai
Default : No
Forced : No

Text #28
ID : 30
Format : UTF-8
Codec ID : S_TEXT/UTF8
Codec ID/Info : UTF-8 Plain Text
Duration : 1 h 16 min
Bit rate : 60 b/s
Frame rate : 0.216 FPS
Count of elements : 984
Stream size : 33.5 KiB (0%)
Language : Turkish
Default : No
Forced : No

Text #29
ID : 31
Format : UTF-8
Codec ID : S_TEXT/UTF8
Codec ID/Info : UTF-8 Plain Text
Duration : 1 h 16 min
Bit rate : 94 b/s
Frame rate : 0.225 FPS
Count of elements : 1027
Stream size : 52.8 KiB (0%)
Language : Ukrainian
Default : No
Forced : No

Text #30
ID : 32
Format : UTF-8
Codec ID : S_TEXT/UTF8
Codec ID/Info : UTF-8 Plain Text
Duration : 1 h 16 min
Bit rate : 71 b/s
Frame rate : 0.215 FPS
Count of elements : 979
Stream size : 39.6 KiB (0%)
Language : Vietnamese
Default : No
Forced : No

Text #31
ID : 33
Format : UTF-8
Codec ID : S_TEXT/UTF8
Codec ID/Info : UTF-8 Plain Text
Duration : 1 h 16 min
Bit rate : 57 b/s
Frame rate : 0.216 FPS
Count of elements : 986
Stream size : 31.7 KiB (0%)
Title : 中文(简体)
Language : 中文
Default : No
Forced : No

Text #32
ID : 34
Format : UTF-8
Codec ID : S_TEXT/UTF8
Codec ID/Info : UTF-8 Plain Text
Duration : 1 h 16 min
Bit rate : 55 b/s
Frame rate : 0.216 FPS
Count of elements : 987
Stream size : 30.7 KiB (0%)
Title : 中文(繁体)
Language : 中文
Default : No
Forced : No


下载地址:

游客,如果您要查看本帖隐藏内容请回复





上一篇:维多利亚的秘密:天使与恶魔(2022) 第一季3集/4K高清版本下载
下一篇:马可波罗 [简繁中字] (2016) 第一、二季全/ 4K高清版本下载
回复

使用道具 举报

2

主题

1179

帖子

3559

积分

4K家园VIP

Rank: 9Rank: 9Rank: 9

积分
3559
发表于 2022-7-21 21:05:38 来自手机 | 显示全部楼层
没看懂
回复 支持 反对

使用道具 举报

58

主题

1568

帖子

4514

积分

4K家园VIP

Rank: 9Rank: 9Rank: 9

积分
4514
发表于 2022-7-21 22:41:49 | 显示全部楼层
顶起出售广告位
回复 支持 反对

使用道具 举报

0

主题

9

帖子

22

积分

新手上路

Rank: 1

积分
22
发表于 2022-7-21 23:17:04 | 显示全部楼层
谢谢分享,无限感激!!!!!!!!
回复 支持 反对

使用道具 举报

46

主题

1509

帖子

4371

积分

4K家园VIP

Rank: 9Rank: 9Rank: 9

积分
4371
发表于 2022-7-22 03:09:41 | 显示全部楼层
正好需要啊
回复 支持 反对

使用道具 举报

195

主题

1599

帖子

4399

积分

4K家园VIP

Rank: 9Rank: 9Rank: 9

积分
4399
发表于 2022-7-22 03:35:17 | 显示全部楼层
秀起来~
回复 支持 反对

使用道具 举报

56

主题

1495

帖子

4341

积分

4K家园VIP

Rank: 9Rank: 9Rank: 9

积分
4341
发表于 2022-7-22 05:24:02 | 显示全部楼层
没人回帖。。。我来个吧
回复 支持 反对

使用道具 举报

0

主题

3

帖子

19

积分

新手上路

Rank: 1

积分
19
发表于 2022-7-22 20:24:13 | 显示全部楼层
感谢分享
回复

使用道具 举报

0

主题

1

帖子

9

积分

新手上路

Rank: 1

积分
9
发表于 2022-7-22 22:47:02 来自手机 | 显示全部楼层
谢谢分享
回复

使用道具 举报

0

主题

3

帖子

15

积分

新手上路

Rank: 1

积分
15
发表于 2022-7-22 22:48:07 | 显示全部楼层
感谢分享
回复

使用道具 举报

您需要登录后才可以回帖 登录 | 立即注册

本版积分规则

精彩图文
Archiver|手机版|TAG|Sitemap|新帖|专题|联系我们:邮箱: 4kjia.com@gmail.com   

4k家园   ©2019