马可波罗 [简繁中字] (2016) 第一、二季全/ 4K高清版本下载

[复制链接]

194

主题

217

帖子

2109

积分

版主

Rank: 7Rank: 7Rank: 7

积分
2109
 楼主| 发表于 2022-7-21 21:04:10 | 显示全部楼层 |阅读模式
p2211488308_副本.jpg p2358474407_副本.jpg

◎译  名 马可波罗 第一季/马可波罗游记 第一季
◎片  名 Marco Polo Season 1
◎年  代 2014
◎国  家 美国
◎类  别 冒险
◎语  言 英语
◎上映日期 2014-12-12(美国)
◎IMDb评分 8.0/10 from 71888 users
◎IMDb链接 http://www.imdb.com/title/tt2189461/
◎豆瓣评分 6.1/10 from 6279 users
◎豆瓣链接 http://movie.douban.com/subject/10539839/
◎集  数 10
◎片  长 60分钟
◎导  演 乔阿吉姆·罗恩尼 Joachim Rønning / 艾斯彭·山德伯格 Espen Sandberg / 丹尼尔·米纳汉 Daniel Minahan
◎主  演 洛伦佐·里凯尔米 Lorenzo Richelmy
      本德里克特·王 Benedict Wong
      陈冲 Joan Chen
      瑞米·海依 Remy Hii
      朱珠 Zhu Zhu
      郑启蕙 Olivia Cheng
      黄经汉 Chin Han
      阿马尔·维克德 Amr Waked
      陈琼华 Kheng Hua Tan
      尹成植 Rick Yune
      皮尔弗朗西斯科·法维诺 Pierfrancesco Favino
      邹兆龙 Collin Chou
      达尔文·肖 Darwin Shaw
      劳拉·莫瑞特 Laura Morante
      布莱恩·何 Brian Ho
      Tom Wu
      马赫什·扎杜 Mahesh Jadu
      Uli Latukefu
      Lawrence Makoare
      Patrick Teoh

◎简  介

  因《纸牌屋》声名鹊起的Netflix,确定涉中香艳动作宫斗片《马可波罗》首播日期确定为12月12号。讲述宋元之间的权力之争。陈冲、朱珠饰演蒙古王后/公主。《权利的游戏》导演参与拍摄,整季投资六千万美金,超过权力的游戏首季,床戏尺度也是不输权力游戏....





◎译  名 马可波罗 第二季/马可波罗游记
◎片  名 Marco Polo Season 2
◎年  代 2016
◎产  地 美国
◎类  别 动作/历史/冒险
◎语  言 英语
◎上映日期 2016-07-01(美国)
◎IMDb评分 8.0/10 from 71888 users
◎IMDb链接 http://www.imdb.com/title/tt4336522/
◎豆瓣评分 6.1/10 from 6279 users
◎豆瓣链接 https://movie.douban.com/subject/26298650/
◎集  数 10
◎片  长 60分钟
◎导  演 丹尼尔·米纳汉 Daniel Minahan / 大卫·彼特拉克 David Petrarca / 乔恩·阿米尔 Jon Amiel / 埃里克·萨哈罗夫 Alik Sakharov / 詹姆斯·麦克特格 James McTeigue
◎主  演 洛伦佐·里凯尔米 Lorenzo Richelmy
      罗恩·袁 Ron Yuan
      杨紫琼 Michelle Yeoh
      郑启蕙 Olivia Cheng
      本德里克特·王 Benedict Wong
      尹成植 Rick Yune
      林路迪 Ludi Lin
      陈冲 Joan Chen

◎简  介

  Netflix已续订《马可波罗》第二季。

Video
ID : 1
Format : HEVC
Format/Info : High Efficiency Video Coding
Commercial name : HDR10
Format profile : Main 10@L5@Main
Codec ID : V_MPEGH/ISO/HEVC
Duration : 1 h 4 min
Bit rate : 34.4 Mb/s
Width : 3 840 pixels
Height : 1 920 pixels
Display aspect ratio : 2.000
Frame rate mode : Constant
Frame rate : 23.976 (24000/1001) FPS
Color space : YUV
Chroma subsampling : 4:2:0
Bit depth : 10 bits
Bits/(Pixel*Frame) : 0.195
Stream size : 15.5 GiB (99%)
Writing library : x265 2.8+24-289b8a3730ae:[Windows][MSVC 1914][64 bit] 10bit
Encoding settings : cpuid=1111039 / frame-threads=4 / numa-pools=28,0 / wpp / no-pmode / no-pme / no-psnr / no-ssim / log-level=2 / input-csp=1 / input-res=3840x1920 / interlace=0 / total-frames=0 / level-idc=0 / high-tier=1 / uhd-bd=0 / ref=5 / no-allow-non-conformance / repeat-headers / annexb / no-aud / no-hrd / info / hash=0 / no-temporal-layers / open-gop / min-keyint=23 / keyint=250 / gop-lookahead=0 / bframes=8 / b-adapt=2 / b-pyramid / bframe-bias=0 / rc-lookahead=40 / lookahead-slices=0 / scenecut=40 / radl=0 / no-intra-refresh / ctu=64 / min-cu-size=8 / no-rect / no-amp / max-tu-size=32 / tu-inter-depth=3 / tu-intra-depth=3 / limit-tu=4 / rdoq-level=2 / dynamic-rd=0.00 / no-ssim-rd / signhide / no-tskip / nr-intra=0 / nr-inter=0 / no-constrained-intra / strong-intra-smoothing / max-merge=4 / limit-refs=1 / limit-modes / me=3 / subme=4 / merange=57 / temporal-mvp / weightp / weightb / no-analyze-src-pics / deblock=0:0 / sao / no-sao-non-deblock / rd=6 / no-early-skip / rskip / no-fast-intra / no-tskip-fast / no-cu-lossless / b-intra / no-splitrd-skip / rdpenalty=0 / psy-rd=2.00 / psy-rdoq=1.00 / no-rd-refine / no-lossless / cbqpoffs=0 / crqpoffs=0 / rc=crf / crf=12.0 / qcomp=0.60 / qpstep=4 / stats-write=0 / stats-read=0 / ipratio=1.40 / pbratio=1.30 / aq-mode=3 / aq-strength=1.00 / cutree / zone-count=0 / no-strict-cbr / qg-size=32 / no-rc-grain / qpmax=69 / qpmin=0 / no-const-vbv / sar=0 / overscan=0 / videoformat=5 / range=0 / colorprim=9 / transfer=16 / colormatrix=9 / chromaloc=0 / display-window=0 / master-display=G(13250,34500)B(7500,3000)R(34000,16000)WP(15635,16450)L(40000000,50) / max-cll=10000,125 / min-luma=0 / max-luma=1023 / log2-max-poc-lsb=8 / vui-timing-info / vui-hrd-info / slices=1 / no-opt-qp-pps / no-opt-ref-list-length-pps / no-multi-pass-opt-rps / scenecut-bias=0.05 / no-opt-cu-delta-qp / no-aq-motion / hdr / hdr-opt / no-dhdr10-opt / no-idr-recovery-sei / analysis-reuse-level=5 / scale-factor=0 / refine-intra=0 / refine-inter=0 / refine-mv=0 / limit-sao / ctu-info=0 / no-lowpass-dct / refine-mv-type=0 / copy-pic=1 / max-ausize-factor=1.0 / no-dynamic-refine / no-single-sei
Default : Yes
Forced : No
Color range : Limited
Color primaries : BT.2020
Transfer characteristics : PQ
Matrix coefficients : BT.2020 non-constant
Mastering display color primaries : Display P3
Mastering display luminance : min: 0.0050 cd/m2, max: 4000 cd/m2
Maximum Content Light Level : 10000 cd/m2
Maximum Frame-Average Light Level : 125 cd/m2

Audio
ID : 2
Format : AC-3
Format/Info : Audio Coding 3
Codec ID : A_AC3
Duration : 1 h 5 min
Bit rate mode : Constant
Bit rate : 384 kb/s
Channel(s) : 6 channels
Channel positions : Front: L C R, Side: L R, LFE
Sampling rate : 48.0 kHz
Frame rate : 31.250 FPS (1536 SPF)
Bit depth : 16 bits
Compression mode : Lossy
Stream size : 179 MiB (1%)
Language : English
Service kind : Complete Main
Default : Yes
Forced : No

Text #1
ID : 3
Format : UTF-8
Codec ID : S_TEXT/UTF8
Codec ID/Info : UTF-8 Plain Text
Duration : 58 min 45 s
Bit rate : 77 b/s
Count of elements : 521
Stream size : 33.6 KiB (0%)
Language : Arabic
Default : No
Forced : No

Text #2
ID : 4
Format : UTF-8
Codec ID : S_TEXT/UTF8
Codec ID/Info : UTF-8 Plain Text
Duration : 58 min 45 s
Bit rate : 57 b/s
Count of elements : 521
Stream size : 24.7 KiB (0%)
Language : Bulgarian
Default : No
Forced : No

Text #3
ID : 5
Format : UTF-8
Codec ID : S_TEXT/UTF8
Codec ID/Info : UTF-8 Plain Text
Duration : 1 h 0 min
Bit rate : 36 b/s
Count of elements : 539
Stream size : 16.2 KiB (0%)
Language : Czech
Default : No
Forced : No

Text #4
ID : 6
Format : UTF-8
Codec ID : S_TEXT/UTF8
Codec ID/Info : UTF-8 Plain Text
Duration : 58 min 45 s
Bit rate : 40 b/s
Count of elements : 510
Stream size : 17.3 KiB (0%)
Language : Danish
Default : No
Forced : No

Text #5
ID : 7
Format : UTF-8
Codec ID : S_TEXT/UTF8
Codec ID/Info : UTF-8 Plain Text
Duration : 58 min 45 s
Bit rate : 42 b/s
Count of elements : 501
Stream size : 18.3 KiB (0%)
Language : German
Default : No
Forced : No

Text #6
ID : 8
Format : UTF-8
Codec ID : S_TEXT/UTF8
Codec ID/Info : UTF-8 Plain Text
Duration : 1 h 0 min
Bit rate : 67 b/s
Count of elements : 568
Stream size : 30.0 KiB (0%)
Language : Greek
Default : No
Forced : No

Text #7
ID : 9
Format : UTF-8
Codec ID : S_TEXT/UTF8
Codec ID/Info : UTF-8 Plain Text
Duration : 1 h 1 min
Bit rate : 41 b/s
Count of elements : 642
Stream size : 18.5 KiB (0%)
Title : SDH
Language : English
Default : No
Forced : No

Text #8
ID : 10
Format : UTF-8
Codec ID : S_TEXT/UTF8
Codec ID/Info : UTF-8 Plain Text
Duration : 58 min 45 s
Bit rate : 38 b/s
Count of elements : 521
Stream size : 16.6 KiB (0%)
Language : Spanish
Default : No
Forced : No

Text #9
ID : 11
Format : UTF-8
Codec ID : S_TEXT/UTF8
Codec ID/Info : UTF-8 Plain Text
Duration : 58 min 45 s
Bit rate : 39 b/s
Count of elements : 519
Stream size : 17.1 KiB (0%)
Language : Spanish
Default : No
Forced : No

Text #10
ID : 12
Format : UTF-8
Codec ID : S_TEXT/UTF8
Codec ID/Info : UTF-8 Plain Text
Duration : 58 min 45 s
Bit rate : 38 b/s
Count of elements : 408
Stream size : 16.5 KiB (0%)
Language : Finnish
Default : No
Forced : No

Text #11
ID : 13
Format : UTF-8
Codec ID : S_TEXT/UTF8
Codec ID/Info : UTF-8 Plain Text
Duration : 1 h 3 min
Bit rate : 39 b/s
Count of elements : 518
Stream size : 18.3 KiB (0%)
Language : French
Default : No
Forced : No

Text #12
ID : 14
Format : UTF-8
Codec ID : S_TEXT/UTF8
Codec ID/Info : UTF-8 Plain Text
Duration : 58 min 45 s
Bit rate : 49 b/s
Count of elements : 539
Stream size : 21.3 KiB (0%)
Language : Hebrew
Default : No
Forced : No

Text #13
ID : 15
Format : UTF-8
Codec ID : S_TEXT/UTF8
Codec ID/Info : UTF-8 Plain Text
Duration : 1 h 3 min
Bit rate : 93 b/s
Count of elements : 574
Stream size : 43.0 KiB (0%)
Language : Hindi
Default : No
Forced : No

Text #14
ID : 16
Format : UTF-8
Codec ID : S_TEXT/UTF8
Codec ID/Info : UTF-8 Plain Text
Duration : 1 h 3 min
Bit rate : 32 b/s
Count of elements : 518
Stream size : 15.2 KiB (0%)
Language : Croatian
Default : No
Forced : No

Text #15
ID : 17
Format : UTF-8
Codec ID : S_TEXT/UTF8
Codec ID/Info : UTF-8 Plain Text
Duration : 1 h 0 min
Bit rate : 39 b/s
Count of elements : 524
Stream size : 17.5 KiB (0%)
Language : Hungarian
Default : No
Forced : No

Text #16
ID : 18
Format : UTF-8
Codec ID : S_TEXT/UTF8
Codec ID/Info : UTF-8 Plain Text
Duration : 1 h 3 min
Bit rate : 37 b/s
Count of elements : 529
Stream size : 17.6 KiB (0%)
Language : Indonesian
Default : No
Forced : No

Text #17
ID : 19
Format : UTF-8
Codec ID : S_TEXT/UTF8
Codec ID/Info : UTF-8 Plain Text
Duration : 58 min 45 s
Bit rate : 41 b/s
Count of elements : 517
Stream size : 17.7 KiB (0%)
Language : Italian
Default : No
Forced : No

Text #18
ID : 20
Format : UTF-8
Codec ID : S_TEXT/UTF8
Codec ID/Info : UTF-8 Plain Text
Duration : 58 min 46 s
Bit rate : 33 b/s
Count of elements : 516
Stream size : 14.6 KiB (0%)
Language : Japanese
Default : No
Forced : No

Text #19
ID : 21
Format : UTF-8
Codec ID : S_TEXT/UTF8
Codec ID/Info : UTF-8 Plain Text
Duration : 58 min 45 s
Bit rate : 46 b/s
Count of elements : 520
Stream size : 20.2 KiB (0%)
Language : Korean
Default : No
Forced : No

Text #20
ID : 22
Format : UTF-8
Codec ID : S_TEXT/UTF8
Codec ID/Info : UTF-8 Plain Text
Duration : 1 h 0 min
Bit rate : 39 b/s
Count of elements : 540
Stream size : 17.3 KiB (0%)
Language : Malay
Default : No
Forced : No

Text #21
ID : 23
Format : UTF-8
Codec ID : S_TEXT/UTF8
Codec ID/Info : UTF-8 Plain Text
Duration : 58 min 45 s
Bit rate : 38 b/s
Count of elements : 508
Stream size : 16.4 KiB (0%)
Language : Norwegian Bokmal
Default : No
Forced : No

Text #22
ID : 24
Format : UTF-8
Codec ID : S_TEXT/UTF8
Codec ID/Info : UTF-8 Plain Text
Duration : 58 min 45 s
Bit rate : 38 b/s
Count of elements : 456
Stream size : 16.7 KiB (0%)
Language : Dutch
Default : No
Forced : No

Text #23
ID : 25
Format : UTF-8
Codec ID : S_TEXT/UTF8
Codec ID/Info : UTF-8 Plain Text
Duration : 58 min 45 s
Bit rate : 36 b/s
Count of elements : 534
Stream size : 15.6 KiB (0%)
Language : Polish
Default : No
Forced : No

Text #24
ID : 26
Format : UTF-8
Codec ID : S_TEXT/UTF8
Codec ID/Info : UTF-8 Plain Text
Duration : 58 min 45 s
Bit rate : 38 b/s
Count of elements : 521
Stream size : 16.5 KiB (0%)
Language : Portuguese
Default : No
Forced : No

Text #25
ID : 27
Format : UTF-8
Codec ID : S_TEXT/UTF8
Codec ID/Info : UTF-8 Plain Text
Duration : 58 min 45 s
Bit rate : 37 b/s
Count of elements : 517
Stream size : 16.3 KiB (0%)
Title : Brazilian
Language : Portuguese
Default : No
Forced : No

Text #26
ID : 28
Format : UTF-8
Codec ID : S_TEXT/UTF8
Codec ID/Info : UTF-8 Plain Text
Duration : 1 h 0 min
Bit rate : 37 b/s
Count of elements : 538
Stream size : 16.9 KiB (0%)
Language : Romanian
Default : No
Forced : No

Text #27
ID : 29
Format : UTF-8
Codec ID : S_TEXT/UTF8
Codec ID/Info : UTF-8 Plain Text
Duration : 1 h 0 min
Bit rate : 55 b/s
Count of elements : 538
Stream size : 24.9 KiB (0%)
Language : Russian
Default : No
Forced : No

Text #28
ID : 30
Format : UTF-8
Codec ID : S_TEXT/UTF8
Codec ID/Info : UTF-8 Plain Text
Duration : 1 h 3 min
Bit rate : 33 b/s
Count of elements : 527
Stream size : 15.6 KiB (0%)
Language : Slovak
Default : No
Forced : No

Text #29
ID : 31
Format : UTF-8
Codec ID : S_TEXT/UTF8
Codec ID/Info : UTF-8 Plain Text
Duration : 58 min 45 s
Bit rate : 39 b/s
Count of elements : 506
Stream size : 17.0 KiB (0%)
Language : Swedish
Default : No
Forced : No

Text #30
ID : 32
Format : UTF-8
Codec ID : S_TEXT/UTF8
Codec ID/Info : UTF-8 Plain Text
Duration : 58 min 45 s
Bit rate : 89 b/s
Count of elements : 527
Stream size : 38.5 KiB (0%)
Language : Thai
Default : No
Forced : No

Text #31
ID : 33
Format : UTF-8
Codec ID : S_TEXT/UTF8
Codec ID/Info : UTF-8 Plain Text
Duration : 1 h 0 min
Bit rate : 40 b/s
Count of elements : 517
Stream size : 17.8 KiB (0%)
Language : Tagalog
Default : No
Forced : No

Text #32
ID : 34
Format : UTF-8
Codec ID : S_TEXT/UTF8
Codec ID/Info : UTF-8 Plain Text
Duration : 58 min 45 s
Bit rate : 37 b/s
Count of elements : 549
Stream size : 16.3 KiB (0%)
Language : Turkish
Default : No
Forced : No

Text #33
ID : 35
Format : UTF-8
Codec ID : S_TEXT/UTF8
Codec ID/Info : UTF-8 Plain Text
Duration : 1 h 0 min
Bit rate : 54 b/s
Count of elements : 568
Stream size : 24.2 KiB (0%)
Language : Ukrainian
Default : No
Forced : No

Text #34
ID : 36
Format : UTF-8
Codec ID : S_TEXT/UTF8
Codec ID/Info : UTF-8 Plain Text
Duration : 1 h 3 min
Bit rate : 50 b/s
Count of elements : 528
Stream size : 23.4 KiB (0%)
Language : Vietnamese
Default : No
Forced : No

Text #35
ID : 37
Format : UTF-8
Codec ID : S_TEXT/UTF8
Codec ID/Info : UTF-8 Plain Text
Duration : 58 min 45 s
Bit rate : 40 b/s
Count of elements : 520
Stream size : 17.3 KiB (0%)
Title : Simplified
Language : Chinese
Default : No
Forced : No

Text #36
ID : 38
Format : UTF-8
Codec ID : S_TEXT/UTF8
Codec ID/Info : UTF-8 Plain Text
Duration : 58 min 45 s
Bit rate : 38 b/s
Count of elements : 521
Stream size : 16.6 KiB (0%)
Title : Traditional
Language : Chinese
Default : No
Forced : No
下载地址:

第一集
马可波罗(98.37GB)Marco.Polo.S01.2160p.NF.WEBRip.x265.10bit.HDR.DTS-HD.MA.5.1-T.torrent (247.59 KB, 售价: 9 金币)

上一篇:黑镜 [简繁中字] /Black Mirror (2017) 第四季全6集/4K高清版本下载
下一篇:路西法 [简繁中字] /Lucifer (2017) 第六季全10集/4K高清版本下载
回复

使用道具 举报

49

主题

1483

帖子

4251

积分

4K家园VIP

Rank: 9Rank: 9Rank: 9

积分
4251
发表于 2022-7-21 21:06:11 | 显示全部楼层
垃圾内容,路过为证。
回复 支持 反对

使用道具 举报

0

主题

9

帖子

22

积分

新手上路

Rank: 1

积分
22
发表于 2022-7-21 23:16:34 | 显示全部楼层
谢谢分享,无限感激!!!!!!!!
回复 支持 反对

使用道具 举报

0

主题

8337

帖子

1万

积分

4K家园VIP

Rank: 9Rank: 9Rank: 9

积分
19391
发表于 2022-7-22 08:17:48 | 显示全部楼层
太好啦&萬分感謝版主的無私發佈分享%
回复 支持 反对

使用道具 举报

40

主题

1525

帖子

4337

积分

4K家园VIP

Rank: 9Rank: 9Rank: 9

积分
4337
发表于 2022-7-22 15:32:36 | 显示全部楼层
元芳你怎么看?
回复 支持 反对

使用道具 举报

2

主题

1688

帖子

4652

积分

4K家园VIP

Rank: 9Rank: 9Rank: 9

积分
4652
发表于 2022-7-23 01:02:52 | 显示全部楼层
报告!别开枪,我就是路过来看看的。。。
回复 支持 反对

使用道具 举报

1

主题

1645

帖子

4557

积分

4K家园VIP

Rank: 9Rank: 9Rank: 9

积分
4557
发表于 2022-7-23 03:19:25 | 显示全部楼层
正好需要啊
回复 支持 反对

使用道具 举报

2

主题

1635

帖子

4499

积分

4K家园VIP

Rank: 9Rank: 9Rank: 9

积分
4499
发表于 2022-7-26 17:35:56 | 显示全部楼层
边撸边过
回复 支持 反对

使用道具 举报

您需要登录后才可以回帖 登录 | 立即注册

本版积分规则

精彩图文
Archiver|手机版|TAG|Sitemap|新帖|专题|联系我们:邮箱: 4kjia.com@gmail.com   

4k家园   ©2019