路西法 [简繁中字] /Lucifer (2017) 第六季全10集/4K高清版本下载

[复制链接]

194

主题

217

帖子

2109

积分

版主

Rank: 7Rank: 7Rank: 7

积分
2109
 楼主| 发表于 2022-7-21 21:23:46 | 显示全部楼层 |阅读模式
p2676092024_副本.jpg

◎标  题 路西法 第六季
◎片  名 Lucifer Season 6
◎年  代 2021
◎产  地 美国
◎类  别 剧情 / 犯罪 / 奇幻
◎语  言 英语
◎上映日期 2021-09-10(美国)
◎IMDb评分 8.1/10 from 312602 users
◎IMDb链接 https://www.imdb.com/title/tt12585334/
◎豆瓣评分 8.2/10 from 1718 users
◎豆瓣链接 https://movie.douban.com/subject/35116336/
◎导  演 凯文·阿历詹卓 Kevin Alejandro
◎编  剧 迈克·科斯塔 Mike Costa / 乔·亨德森 Joe Henderson
◎演  员 汤姆·艾利斯 Tom Ellis
       劳伦·日尔曼 Lauren German
       凯文·阿历詹卓 Kevin Alejandro
       莱斯丽-安·布莱德 Lesley-Ann Brandt
       马特·科博伊 Matt Corboy
       克里斯·科伊 Chris Coy
       斯嘉丽·艾斯特维兹 Scarlett Estevez
       埃美·加西亚 Aimee Garcia
       伊丽莎白·格鲁伦 Elizabeth Grullon
       瑞秋·哈里斯 Rachael Harris
       丹尼斯·海斯伯特 Dennis Haysbert
       斯科特·波特 Scott Porter
       D.B.伍德塞德 D.B. Woodside
       亚当·维利 Adam Wylie
       罗布·萨布雷基 Rob Zabrecky
       乔·亨德森 Joe Henderson


◎简  介


  Netflix正式宣布:《路西法》有第6季!“魔鬼强迫我们这么干的~”
该剧制作方华纳兄弟电视此前定下5季完结,也宣布了。而中途接手该剧的Netflix希望再多一季,今年开始运作各方回归,如今终于搞定。同时也表示这次真是最后一季了,“like, FINAL final”

Video
ID : 1
Format : HEVC
Format/Info : High Efficiency Video Coding
Format profile : Main 10@L5@Main
HDR format : Dolby Vision, Version 1.0, dvhe.08.06, BL+RPU, HDR10 compatible / SMPTE ST 2086, HDR10 compatible
Codec ID : V_MPEGH/ISO/HEVC
Duration : 1 h 4 min
Bit rate : 15.9 Mb/s
Width : 3 840 pixels
Height : 2 160 pixels
Display aspect ratio : 16:9
Frame rate mode : Constant
Frame rate : 23.976 (24000/1001) FPS
Color space : YUV
Chroma subsampling : 4:2:0 (Type 2)
Bit depth : 10 bits
Bits/(Pixel*Frame) : 0.080
Stream size : 7.23 GiB (96%)
Default : Yes
Forced : No
Color range : Limited
Color primaries : BT.2020
Transfer characteristics : PQ
Matrix coefficients : BT.2020 non-constant
Mastering display color primaries : Display P3
Mastering display luminance : min: 0.0001 cd/m2, max: 1000 cd/m2
Maximum Content Light Level : 1207 cd/m2
Maximum Frame-Average Light Level : 1000 cd/m2

Audio
ID : 2
Format : E-AC-3
Format/Info : Enhanced AC-3
Commercial name : Dolby Digital Plus
Codec ID : A_EAC3
Duration : 1 h 5 min
Bit rate mode : Constant
Bit rate : 640 kb/s
Channel(s) : 6 channels
Channel layout : L R C LFE Ls Rs
Sampling rate : 48.0 kHz
Frame rate : 31.250 FPS (1536 SPF)
Compression mode : Lossy
Stream size : 302 MiB (4%)
Language : English
Service kind : Complete Main
Default : Yes
Forced : No

Text #1
ID : 3
Format : UTF-8
Codec ID : S_TEXT/UTF8
Codec ID/Info : UTF-8 Plain Text
Duration : 1 h 3 min
Bit rate : 69 b/s
Frame rate : 0.272 FPS
Count of elements : 1037
Stream size : 32.4 KiB (0%)
Title : [CC]
Language : English
Default : Yes
Forced : No

Text #2
ID : 4
Format : UTF-8
Codec ID : S_TEXT/UTF8
Codec ID/Info : UTF-8 Plain Text
Duration : 1 h 3 min
Bit rate : 94 b/s
Frame rate : 0.223 FPS
Count of elements : 851
Stream size : 43.8 KiB (0%)
Language : Arabic
Default : No
Forced : No

Text #3
ID : 5
Format : UTF-8
Codec ID : S_TEXT/UTF8
Codec ID/Info : UTF-8 Plain Text
Duration : 1 h 4 min
Bit rate : 54 b/s
Frame rate : 0.208 FPS
Count of elements : 807
Stream size : 25.8 KiB (0%)
Language : Czech
Default : No
Forced : No

Text #4
ID : 6
Format : UTF-8
Codec ID : S_TEXT/UTF8
Codec ID/Info : UTF-8 Plain Text
Duration : 1 h 4 min
Bit rate : 50 b/s
Frame rate : 0.194 FPS
Count of elements : 750
Stream size : 23.8 KiB (0%)
Language : Danish
Default : No
Forced : No

Text #5
ID : 7
Format : UTF-8
Codec ID : S_TEXT/UTF8
Codec ID/Info : UTF-8 Plain Text
Duration : 1 h 4 min
Bit rate : 52 b/s
Frame rate : 0.200 FPS
Count of elements : 774
Stream size : 24.8 KiB (0%)
Language : German
Default : No
Forced : No

Text #6
ID : 8
Format : UTF-8
Codec ID : S_TEXT/UTF8
Codec ID/Info : UTF-8 Plain Text
Duration : 1 h 4 min
Bit rate : 84 b/s
Frame rate : 0.202 FPS
Count of elements : 781
Stream size : 39.9 KiB (0%)
Language : Greek
Default : No
Forced : No

Text #7
ID : 9
Format : UTF-8
Codec ID : S_TEXT/UTF8
Codec ID/Info : UTF-8 Plain Text
Duration : 1 h 4 min
Bit rate : 48 b/s
Frame rate : 0.212 FPS
Count of elements : 823
Stream size : 23.1 KiB (0%)
Language : Spanish
Default : No
Forced : No

Text #8
ID : 10
Format : UTF-8
Codec ID : S_TEXT/UTF8
Codec ID/Info : UTF-8 Plain Text
Duration : 1 h 4 min
Bit rate : 49 b/s
Frame rate : 0.211 FPS
Count of elements : 818
Stream size : 23.3 KiB (0%)
Title : European
Language : Spanish
Default : No
Forced : No

Text #9
ID : 11
Format : UTF-8
Codec ID : S_TEXT/UTF8
Codec ID/Info : UTF-8 Plain Text
Duration : 1 h 4 min
Bit rate : 48 b/s
Frame rate : 0.194 FPS
Count of elements : 752
Stream size : 22.7 KiB (0%)
Language : Finnish
Default : No
Forced : No

Text #10
ID : 12
Format : UTF-8
Codec ID : S_TEXT/UTF8
Codec ID/Info : UTF-8 Plain Text
Duration : 1 h 4 min
Bit rate : 48 b/s
Frame rate : 0.199 FPS
Count of elements : 771
Stream size : 23.1 KiB (0%)
Language : French
Default : No
Forced : No

Text #11
ID : 13
Format : UTF-8
Codec ID : S_TEXT/UTF8
Codec ID/Info : UTF-8 Plain Text
Duration : 1 h 4 min
Bit rate : 87 b/s
Frame rate : 0.217 FPS
Count of elements : 841
Stream size : 41.6 KiB (0%)
Language : Hebrew
Default : No
Forced : No

Text #12
ID : 14
Format : UTF-8
Codec ID : S_TEXT/UTF8
Codec ID/Info : UTF-8 Plain Text
Duration : 1 h 4 min
Bit rate : 47 b/s
Frame rate : 0.219 FPS
Count of elements : 849
Stream size : 22.3 KiB (0%)
Language : Croatian
Default : No
Forced : No

Text #13
ID : 15
Format : UTF-8
Codec ID : S_TEXT/UTF8
Codec ID/Info : UTF-8 Plain Text
Duration : 1 h 4 min
Bit rate : 48 b/s
Frame rate : 0.217 FPS
Count of elements : 842
Stream size : 23.0 KiB (0%)
Language : Hungarian
Default : No
Forced : No

Text #14
ID : 16
Format : UTF-8
Codec ID : S_TEXT/UTF8
Codec ID/Info : UTF-8 Plain Text
Duration : 1 h 4 min
Bit rate : 50 b/s
Frame rate : 0.216 FPS
Count of elements : 839
Stream size : 24.0 KiB (0%)
Language : Indonesian
Default : No
Forced : No

Text #15
ID : 17
Format : UTF-8
Codec ID : S_TEXT/UTF8
Codec ID/Info : UTF-8 Plain Text
Duration : 1 h 4 min
Bit rate : 49 b/s
Frame rate : 0.211 FPS
Count of elements : 818
Stream size : 23.3 KiB (0%)
Language : Italian
Default : No
Forced : No

Text #16
ID : 18
Format : UTF-8
Codec ID : S_TEXT/UTF8
Codec ID/Info : UTF-8 Plain Text
Duration : 1 h 4 min
Bit rate : 51 b/s
Frame rate : 0.214 FPS
Count of elements : 829
Stream size : 24.4 KiB (0%)
Language : Japanese
Default : No
Forced : No

Text #17
ID : 19
Format : UTF-8
Codec ID : S_TEXT/UTF8
Codec ID/Info : UTF-8 Plain Text
Duration : 1 h 4 min
Bit rate : 67 b/s
Frame rate : 0.221 FPS
Count of elements : 856
Stream size : 32.1 KiB (0%)
Language : Korean
Default : No
Forced : No

Text #18
ID : 20
Format : UTF-8
Codec ID : S_TEXT/UTF8
Codec ID/Info : UTF-8 Plain Text
Duration : 1 h 4 min
Bit rate : 48 b/s
Frame rate : 0.202 FPS
Count of elements : 782
Stream size : 23.2 KiB (0%)
Language : Malay
Default : No
Forced : No

Text #19
ID : 21
Format : UTF-8
Codec ID : S_TEXT/UTF8
Codec ID/Info : UTF-8 Plain Text
Duration : 1 h 4 min
Bit rate : 48 b/s
Frame rate : 0.203 FPS
Count of elements : 785
Stream size : 23.1 KiB (0%)
Language : Norwegian Bokmal
Default : No
Forced : No

Text #20
ID : 22
Format : UTF-8
Codec ID : S_TEXT/UTF8
Codec ID/Info : UTF-8 Plain Text
Duration : 1 h 4 min
Bit rate : 49 b/s
Frame rate : 0.190 FPS
Count of elements : 736
Stream size : 23.4 KiB (0%)
Language : Dutch
Default : No
Forced : No

Text #21
ID : 23
Format : UTF-8
Codec ID : S_TEXT/UTF8
Codec ID/Info : UTF-8 Plain Text
Duration : 1 h 4 min
Bit rate : 48 b/s
Frame rate : 0.216 FPS
Count of elements : 839
Stream size : 23.0 KiB (0%)
Language : Polish
Default : No
Forced : No

Text #22
ID : 24
Format : UTF-8
Codec ID : S_TEXT/UTF8
Codec ID/Info : UTF-8 Plain Text
Duration : 1 h 4 min
Bit rate : 53 b/s
Frame rate : 0.208 FPS
Count of elements : 808
Stream size : 25.2 KiB (0%)
Language : Portuguese
Default : No
Forced : No

Text #23
ID : 25
Format : UTF-8
Codec ID : S_TEXT/UTF8
Codec ID/Info : UTF-8 Plain Text
Duration : 1 h 4 min
Bit rate : 49 b/s
Frame rate : 0.215 FPS
Count of elements : 833
Stream size : 23.3 KiB (0%)
Title : Brazilian
Language : Portuguese
Default : No
Forced : No

Text #24
ID : 26
Format : UTF-8
Codec ID : S_TEXT/UTF8
Codec ID/Info : UTF-8 Plain Text
Duration : 1 h 4 min
Bit rate : 57 b/s
Frame rate : 0.202 FPS
Count of elements : 782
Stream size : 27.1 KiB (0%)
Language : Romanian
Default : No
Forced : No

Text #25
ID : 27
Format : UTF-8
Codec ID : S_TEXT/UTF8
Codec ID/Info : UTF-8 Plain Text
Duration : 1 h 4 min
Bit rate : 81 b/s
Frame rate : 0.218 FPS
Count of elements : 846
Stream size : 38.7 KiB (0%)
Language : Russian
Default : No
Forced : No

Text #26
ID : 28
Format : UTF-8
Codec ID : S_TEXT/UTF8
Codec ID/Info : UTF-8 Plain Text
Duration : 1 h 4 min
Bit rate : 50 b/s
Frame rate : 0.176 FPS
Count of elements : 681
Stream size : 23.8 KiB (0%)
Language : Swedish
Default : No
Forced : No

Text #27
ID : 29
Format : UTF-8
Codec ID : S_TEXT/UTF8
Codec ID/Info : UTF-8 Plain Text
Duration : 1 h 4 min
Bit rate : 142 b/s
Frame rate : 0.220 FPS
Count of elements : 851
Stream size : 67.4 KiB (0%)
Language : Thai
Default : No
Forced : No

Text #28
ID : 30
Format : UTF-8
Codec ID : S_TEXT/UTF8
Codec ID/Info : UTF-8 Plain Text
Duration : 1 h 4 min
Bit rate : 52 b/s
Frame rate : 0.193 FPS
Count of elements : 747
Stream size : 25.0 KiB (0%)
Language : Turkish
Default : No
Forced : No

Text #29
ID : 31
Format : UTF-8
Codec ID : S_TEXT/UTF8
Codec ID/Info : UTF-8 Plain Text
Duration : 1 h 4 min
Bit rate : 73 b/s
Frame rate : 0.206 FPS
Count of elements : 798
Stream size : 34.6 KiB (0%)
Language : Vietnamese
Default : No
Forced : No

Text #30
ID : 32
Format : UTF-8
Codec ID : S_TEXT/UTF8
Codec ID/Info : UTF-8 Plain Text
Duration : 1 h 4 min
Bit rate : 57 b/s
Frame rate : 0.220 FPS
Count of elements : 851
Stream size : 27.1 KiB (0%)
Title : Simplified
Language : Chinese
Default : No
Forced : No

Text #31
ID : 33
Format : UTF-8
Codec ID : S_TEXT/UTF8
Codec ID/Info : UTF-8 Plain Text
Duration : 1 h 4 min
Bit rate : 55 b/s
Frame rate : 0.234 FPS
Count of elements : 908
Stream size : 26.1 KiB (0%)
Title : Traditional
Language : Chinese
Default : No
Forced : No
下载地址:

游客,如果您要查看本帖隐藏内容请回复

游客,如果您要查看本帖隐藏内容请回复









上一篇:马可波罗 [简繁中字] (2016) 第一、二季全/ 4K高清版本下载
下一篇:美国众神 / American.Gods (2016) 第一至三季全/ 4K高清版本下载
回复

使用道具 举报

3

主题

1619

帖子

4453

积分

4K家园VIP

Rank: 9Rank: 9Rank: 9

积分
4453
发表于 2022-7-24 18:00:41 | 显示全部楼层
看起来好像不错的样子
回复 支持 反对

使用道具 举报

3

主题

1749

帖子

4787

积分

4K家园VIP

Rank: 9Rank: 9Rank: 9

积分
4787
发表于 2022-7-25 04:53:33 | 显示全部楼层
高手云集 果断围观
回复 支持 反对

使用道具 举报

2

主题

1179

帖子

3559

积分

4K家园VIP

Rank: 9Rank: 9Rank: 9

积分
3559
发表于 2022-7-27 17:56:41 | 显示全部楼层
回复 支持 反对

使用道具 举报

3

主题

1627

帖子

4523

积分

4K家园VIP

Rank: 9Rank: 9Rank: 9

积分
4523
发表于 2022-7-27 20:26:54 | 显示全部楼层
前排顶,很好!
回复 支持 反对

使用道具 举报

2

主题

1394

帖子

4206

积分

4K家园VIP

Rank: 9Rank: 9Rank: 9

积分
4206
发表于 2022-7-28 02:13:06 | 显示全部楼层
哈哈,我只看看不说话
回复 支持 反对

使用道具 举报

您需要登录后才可以回帖 登录 | 立即注册

本版积分规则

精彩图文
Archiver|手机版|TAG|Sitemap|新帖|专题|联系我们:邮箱: 4kjia.com@gmail.com   

4k家园   ©2019