[4K电影] 无限爱可能 [简繁中字]/Anything's Possible (2022) 4K高清版本下载

[复制链接]

2163

主题

2306

帖子

1万

积分

超级版主

Rank: 8Rank: 8

积分
16861
 楼主| 发表于 2022-7-22 20:20:00 | 显示全部楼层 |阅读模式
本帖最后由 最爱4K哟 于 2022-7-22 20:35 编辑

QQ图片20220722200252_副本.png

◎标  题 无限爱可能
◎译  名 What If?
◎片  名 Anything's Possible
◎年  代 2022
◎产  地 美国
◎类  别 喜剧 / 爱情 / 同性
◎语  言 英语
◎上映日期 2022-07-22(美国)
◎IMDb评分 4.1/10 from 49 users
◎IMDb链接 https://www.imdb.com/title/tt11464446/
◎豆瓣评分 0/10 from 131人 users
◎豆瓣链接 https://movie.douban.com/subject/35288407/
◎导  演 比利·波特 Billy Porter
◎演  员 芮妮·戈兹贝里 Renee Goldsberry
                   Eva Reign Eva Reign
                   阿布巴克尔·阿里 Abubakr Ali
                   凯利·拉莫尔·威尔逊 Kelly Lamor Wilson
                   西蒙·乔伊·琼斯 Simone Joy Jones
                  格兰特·雷诺兹 Grant Reynolds
                  托迪·克拉克 Tordy Clark
                  诺亚·帕克特 Noah Pacht
                  考特尼·卡特 Courtnee Carter
                  Naveen Paddock Naveen Paddock
                  马努·纳拉扬 Manu Narayan
                  卡罗琳·特拉弗斯 Caroline Travers
                  罗杰·佩坦 Roger Petan
                  Evie Piekarski Evie Piekarski
                  比尔·哈东 Bill Hartung
                  Michelle Do Michelle Do
                  莱诺拉·内梅茨 Lenora Nemetz
                  肯·卢茨 Ken Lutz


◎简  介

  当一个17岁的孩子问出自己的心上人,一个变性同学时,他没有表现出对学校的支持。
Video
ID : 1
Format : HEVC
Format/Info : High Efficiency Video Coding
Format profile : Main@L5@Main
Codec ID : V_MPEGH/ISO/HEVC
Duration : 1 h 27 min
Bit rate : 13.4 Mb/s
Width : 3 840 pixels
Height : 2 080 pixels
Display aspect ratio : 1.85:1
Frame rate mode : Constant
Frame rate : 23.976 (24000/1001) FPS
Standard : NTSC
Color space : YUV
Chroma subsampling : 4:2:0
Bit depth : 8 bits
Bits/(Pixel*Frame) : 0.070
Stream size : 8.14 GiB (95%)
Writing library : x265 2.9_elemental+1-9e0607aa5b6f:[Linux][GCC 4.8.5][64 bit] 8bit+10bit+12bit
Encoding settings : cpuid=1111039 / frame-threads=2 / wpp / no-pmode / no-pme / psnr / ssim / log-level=2 / csv / csv-log-level=2 / input-csp=1 / input-res=3840x2080 / interlace=0 / total-frames=0 / level-idc=50 / high-tier=1 / uhd-bd=0 / ref=5 / no-allow-non-conformance / no-repeat-headers / annexb / no-aud / no-hrd / info / hash=0 / no-temporal-layers / no-open-gop / min-keyint=61 / keyint=120 / gop-lookahead=0 / bframes=8 / b-adapt=2 / b-pyramid / bframe-bias=0 / rc-lookahead=120 / lookahead-slices=4 / scenecut=0 / radl=0 / no-intra-refresh / ctu=64 / min-cu-size=8 / rect / amp / max-tu-size=32 / tu-inter-depth=4 / tu-intra-depth=4 / limit-tu=4 / rdoq-level=2 / dynamic-rd=0.00 / no-ssim-rd / signhide / tskip / nr-intra=100 / nr-inter=600 / no-constrained-intra / strong-intra-smoothing / max-merge=3 / limit-refs=3 / limit-modes / me=3 / subme=3 / merange=57 / temporal-mvp / weightp / weightb / no-analyze-src-pics / deblock=0:0 / no-sao / no-sao-non-deblock / rd=4 / no-early-skip / no-rskip / no-fast-intra / tskip-fast / no-cu-lossless / b-intra / no-splitrd-skip / rdpenalty=0 / psy-rd=4.00 / psy-rdoq=10.00 / no-rd-refine / no-lossless / cbqpoffs=0 / crqpoffs=0 / rc=crf / crf=25.0 / qcomp=0.60 / qpstep=1 / stats-write=0 / stats-read=0 / vbv-maxrate=15000 / vbv-bufsize=20000 / vbv-init=0.9 / crf-max=0.0 / crf-min=0.0 / ipratio=1.10 / pbratio=1.00 / aq-mode=0 / aq-strength=1.50 / no-cutree / zone-count=0 / no-strict-cbr / qg-size=32 / rc-grain / qpmax=69 / qpmin=0 / const-vbv / sar=255 / sar-width / : / sar-height=481:480 / overscan=0 / videoformat=2 / range=0 / colorprim=1 / transfer=1 / colormatrix=1 / chromaloc=0 / display-window=0 / max-cll=0,0 / min-luma=0 / max-luma=255 / log2-max-poc-lsb=8 / vui-timing-info / vui-hrd-info / slices=1 / opt-qp-pps / no-opt-ref-list-length-pps / no-multi-pass-opt-rps / scenecut-bias=0.05 / no-opt-cu-delta-qp / no-aq-motion / no-hdr / no-hdr-opt / no-dhdr10-opt / no-idr-recovery-sei / analysis-reuse-level=5 / scale-factor=0 / refine-intra=0 / refine-inter=0 / refine-mv=0 / no-limit-sao / ctu-info=0 / no-lowpass-dct / refine-mv-type=0 / copy-pic=1 / max-ausize-factor=1.0 / no-dynamic-refine / no-single-sei
Default : Yes
Forced : No
Color range : Limited
Color primaries : BT.709
Transfer characteristics : BT.709
Matrix coefficients : BT.709

Audio
ID : 2
Format : E-AC-3
Format/Info : Enhanced AC-3
Commercial name : Dolby Digital Plus
Codec ID : A_EAC3
Duration : 1 h 38 min
Bit rate mode : Constant
Bit rate : 640 kb/s
Channel(s) : 6 channels
Channel layout : L R C LFE Ls Rs
Sampling rate : 48.0 kHz
Frame rate : 31.250 FPS (1536 SPF)
Compression mode : Lossy
Stream size : 450 MiB (5%)
Title : English
Language : English
Service kind : Complete Main
Default : No
Forced : No

Text #1
ID : 3
Format : UTF-8
Codec ID : S_TEXT/UTF8
Codec ID/Info : UTF-8 Plain Text
Duration : 1 h 34 min
Bit rate : 63 b/s
Frame rate : 0.269 FPS
Count of elements : 1531
Stream size : 44.0 KiB (0%)
Title : Dutch
Language : Dutch
Default : No
Forced : No

Text #2
ID : 4
Format : UTF-8
Codec ID : S_TEXT/UTF8
Codec ID/Info : UTF-8 Plain Text
Duration : 1 h 34 min
Bit rate : 66 b/s
Frame rate : 0.281 FPS
Count of elements : 1598
Stream size : 45.9 KiB (0%)
Title : Czech
Language : Czech
Default : No
Forced : No

Text #3
ID : 5
Format : UTF-8
Codec ID : S_TEXT/UTF8
Codec ID/Info : UTF-8 Plain Text
Duration : 1 h 30 min
Bit rate : 65 b/s
Frame rate : 0.314 FPS
Count of elements : 1704
Stream size : 43.7 KiB (0%)
Title : Spanish
Language : Spanish
Default : No
Forced : No

Text #4
ID : 6
Format : UTF-8
Codec ID : S_TEXT/UTF8
Codec ID/Info : UTF-8 Plain Text
Duration : 1 h 34 min
Bit rate : 63 b/s
Frame rate : 0.281 FPS
Count of elements : 1601
Stream size : 44.0 KiB (0%)
Title : Indonesian
Language : Indonesian
Default : No
Forced : No

Text #5
ID : 7
Format : UTF-8
Codec ID : S_TEXT/UTF8
Codec ID/Info : UTF-8 Plain Text
Duration : 1 h 34 min
Bit rate : 65 b/s
Frame rate : 0.280 FPS
Count of elements : 1596
Stream size : 45.8 KiB (0%)
Title : Hungarian
Language : Hungarian
Default : No
Forced : No

Text #6
ID : 8
Format : UTF-8
Codec ID : S_TEXT/UTF8
Codec ID/Info : UTF-8 Plain Text
Duration : 1 h 34 min
Bit rate : 104 b/s
Frame rate : 0.282 FPS
Count of elements : 1605
Stream size : 72.6 KiB (0%)
Title : Ukrainian
Language : Ukrainian
Default : No
Forced : No

Text #7
ID : 9
Format : UTF-8
Codec ID : S_TEXT/UTF8
Codec ID/Info : UTF-8 Plain Text
Duration : 1 h 34 min
Bit rate : 116 b/s
Frame rate : 0.280 FPS
Count of elements : 1597
Stream size : 81.4 KiB (0%)
Title : Hebrew
Language : Hebrew
Default : No
Forced : No

Text #8
ID : 10
Format : UTF-8
Codec ID : S_TEXT/UTF8
Codec ID/Info : UTF-8 Plain Text
Duration : 1 h 34 min
Bit rate : 106 b/s
Frame rate : 0.282 FPS
Count of elements : 1603
Stream size : 74.3 KiB (0%)
Title : Russian
Language : Russian
Default : No
Forced : No


Text #9
ID : 11
Format : UTF-8
Codec ID : S_TEXT/UTF8
Codec ID/Info : UTF-8 Plain Text
Duration : 1 h 34 min
Bit rate : 63 b/s
Frame rate : 0.282 FPS
Count of elements : 1603
Stream size : 44.5 KiB (0%)
Title : 中文(繁体)
Language : 中文
Default : No
Forced : No

Text #10
ID : 12
Format : UTF-8
Codec ID : S_TEXT/UTF8
Codec ID/Info : UTF-8 Plain Text
Duration : 1 h 34 min
Bit rate : 64 b/s
Frame rate : 0.281 FPS
Count of elements : 1599
Stream size : 44.9 KiB (0%)
Title : Swedish
Language : Swedish
Default : No
Forced : No

Text #11
ID : 13
Format : UTF-8
Codec ID : S_TEXT/UTF8
Codec ID/Info : UTF-8 Plain Text
Duration : 1 h 34 min
Bit rate : 69 b/s
Frame rate : 0.271 FPS
Count of elements : 1542
Stream size : 48.1 KiB (0%)
Title : Filipino
Language : fil
Default : No
Forced : No

Text #12
ID : 14
Format : UTF-8
Codec ID : S_TEXT/UTF8
Codec ID/Info : UTF-8 Plain Text
Duration : 1 h 34 min
Bit rate : 64 b/s
Frame rate : 0.277 FPS
Count of elements : 1580
Stream size : 44.6 KiB (0%)
Title : French
Language : French
Default : No
Forced : No

Text #13
ID : 15
Format : UTF-8
Codec ID : S_TEXT/UTF8
Codec ID/Info : UTF-8 Plain Text
Duration : 1 h 34 min
Bit rate : 62 b/s
Frame rate : 0.280 FPS
Count of elements : 1597
Stream size : 43.1 KiB (0%)
Title : Norwegian (Bokmål)
Language : Norwegian Bokmal
Default : No
Forced : No

Text #14
ID : 16
Format : UTF-8
Codec ID : S_TEXT/UTF8
Codec ID/Info : UTF-8 Plain Text
Duration : 1 h 34 min
Bit rate : 58 b/s
Frame rate : 0.270 FPS
Count of elements : 1537
Stream size : 40.7 KiB (0%)
Title : Polish
Language : Polish
Default : No
Forced : No

Text #15
ID : 17
Format : UTF-8
Codec ID : S_TEXT/UTF8
Codec ID/Info : UTF-8 Plain Text
Duration : 1 h 34 min
Bit rate : 161 b/s
Frame rate : 0.282 FPS
Count of elements : 1605
Stream size : 113 KiB (0%)
Title : Malayalam
Language : Malayalam
Default : No
Forced : No

Text #16
ID : 18
Format : UTF-8
Codec ID : S_TEXT/UTF8
Codec ID/Info : UTF-8 Plain Text
Duration : 1 h 34 min
Bit rate : 64 b/s
Frame rate : 0.281 FPS
Count of elements : 1600
Stream size : 45.1 KiB (0%)
Title : Turkish
Language : Turkish
Default : No
Forced : No

Text #17
ID : 19
Format : UTF-8
Codec ID : S_TEXT/UTF8
Codec ID/Info : UTF-8 Plain Text
Duration : 1 h 29 min
Bit rate : 65 b/s
Frame rate : 0.317 FPS
Count of elements : 1696
Stream size : 42.7 KiB (0%)
Title : French (Canada)
Language : French
Default : No
Forced : No

Text #18
ID : 20
Format : UTF-8
Codec ID : S_TEXT/UTF8
Codec ID/Info : UTF-8 Plain Text
Duration : 1 h 34 min
Bit rate : 162 b/s
Frame rate : 0.282 FPS
Count of elements : 1604
Stream size : 113 KiB (0%)
Title : Telugu
Language : Telugu
Default : No
Forced : No

Text #19
ID : 21
Format : UTF-8
Codec ID : S_TEXT/UTF8
Codec ID/Info : UTF-8 Plain Text
Duration : 1 h 29 min
Bit rate : 77 b/s
Frame rate : 0.340 FPS
Count of elements : 1815
Stream size : 50.5 KiB (0%)
Title : English
Language : English
Default : No
Forced : No

Text #20
ID : 22
Format : UTF-8
Codec ID : S_TEXT/UTF8
Codec ID/Info : UTF-8 Plain Text
Duration : 1 h 34 min
Bit rate : 62 b/s
Frame rate : 0.281 FPS
Count of elements : 1600
Stream size : 43.1 KiB (0%)
Title : Finnish
Language : Finnish
Default : No
Forced : No

Text #21
ID : 23
Format : UTF-8
Codec ID : S_TEXT/UTF8
Codec ID/Info : UTF-8 Plain Text
Duration : 1 h 34 min
Bit rate : 167 b/s
Frame rate : 0.281 FPS
Count of elements : 1603
Stream size : 116 KiB (0%)
Title : Tamil
Language : Tamil
Default : No
Forced : No

Text #22
ID : 24
Format : UTF-8
Codec ID : S_TEXT/UTF8
Codec ID/Info : UTF-8 Plain Text
Duration : 1 h 34 min
Bit rate : 63 b/s
Frame rate : 0.282 FPS
Count of elements : 1608
Stream size : 44.5 KiB (0%)
Title : Japanese
Language : Japanese
Default : No
Forced : No

Text #23
ID : 25
Format : UTF-8
Codec ID : S_TEXT/UTF8
Codec ID/Info : UTF-8 Plain Text
Duration : 1 h 34 min
Bit rate : 160 b/s
Frame rate : 0.281 FPS
Count of elements : 1603
Stream size : 111 KiB (0%)
Title : Hindi
Language : Hindi
Default : No
Forced : No

Text #24
ID : 26
Format : UTF-8
Codec ID : S_TEXT/UTF8
Codec ID/Info : UTF-8 Plain Text
Duration : 1 h 34 min
Bit rate : 162 b/s
Frame rate : 0.281 FPS
Count of elements : 1600
Stream size : 113 KiB (0%)
Title : Thai
Language : Thai
Default : No
Forced : No

Text #25
ID : 27
Format : UTF-8
Codec ID : S_TEXT/UTF8
Codec ID/Info : UTF-8 Plain Text
Duration : 1 h 34 min
Bit rate : 58 b/s
Frame rate : 0.281 FPS
Count of elements : 1598
Stream size : 40.6 KiB (0%)
Title : Basque
Language : Basque
Default : No
Forced : No

Text #26
ID : 28
Format : UTF-8
Codec ID : S_TEXT/UTF8
Codec ID/Info : UTF-8 Plain Text
Duration : 1 h 34 min
Bit rate : 118 b/s
Frame rate : 0.281 FPS
Count of elements : 1603
Stream size : 82.5 KiB (0%)
Title : Arabic
Language : Arabic
Default : No
Forced : No

Text #27
ID : 29
Format : UTF-8
Codec ID : S_TEXT/UTF8
Codec ID/Info : UTF-8 Plain Text
Duration : 1 h 34 min
Bit rate : 59 b/s
Frame rate : 0.281 FPS
Count of elements : 1598
Stream size : 41.2 KiB (0%)
Title : Malay
Language : Malay
Default : No
Forced : No

Text #28
ID : 30
Format : UTF-8
Codec ID : S_TEXT/UTF8
Codec ID/Info : UTF-8 Plain Text
Duration : 1 h 34 min
Bit rate : 60 b/s
Frame rate : 0.279 FPS
Count of elements : 1588
Stream size : 42.1 KiB (0%)
Title : Castilian
Language : Spanish
Default : No
Forced : No

Text #29
ID : 31
Format : UTF-8
Codec ID : S_TEXT/UTF8
Codec ID/Info : UTF-8 Plain Text
Duration : 1 h 34 min
Bit rate : 62 b/s
Frame rate : 0.281 FPS
Count of elements : 1598
Stream size : 43.5 KiB (0%)
Title : Brazilian Portuguese
Language : Portuguese
Default : No
Forced : No

Text #30
ID : 32
Format : UTF-8
Codec ID : S_TEXT/UTF8
Codec ID/Info : UTF-8 Plain Text
Duration : 1 h 34 min
Bit rate : 72 b/s
Frame rate : 0.281 FPS
Count of elements : 1600
Stream size : 50.1 KiB (0%)
Title : Korean
Language : Korean
Default : No
Forced : No

Text #31
ID : 33
Format : UTF-8
Codec ID : S_TEXT/UTF8
Codec ID/Info : UTF-8 Plain Text
Duration : 1 h 34 min
Bit rate : 82 b/s
Frame rate : 0.281 FPS
Count of elements : 1600
Stream size : 57.5 KiB (0%)
Title : Vietnamese
Language : Vietnamese
Default : No
Forced : No

Text #32
ID : 34
Format : UTF-8
Codec ID : S_TEXT/UTF8
Codec ID/Info : UTF-8 Plain Text
Duration : 1 h 34 min
Bit rate : 64 b/s
Frame rate : 0.282 FPS
Count of elements : 1605
Stream size : 44.8 KiB (0%)
Title : 中文(繁体)
Language : 中文
Default : No
Forced : No

Text #33
ID : 35
Format : UTF-8
Codec ID : S_TEXT/UTF8
Codec ID/Info : UTF-8 Plain Text
Duration : 1 h 34 min
Bit rate : 162 b/s
Frame rate : 0.280 FPS
Count of elements : 1597
Stream size : 113 KiB (0%)
Title : Kannada (India)
Language : Kannada
Default : No
Forced : No

Text #34
ID : 36
Format : UTF-8
Codec ID : S_TEXT/UTF8
Codec ID/Info : UTF-8 Plain Text
Duration : 1 h 30 min
Bit rate : 61 b/s
Frame rate : 0.295 FPS
Count of elements : 1601
Stream size : 40.4 KiB (0%)
Title : Galician
Language : Galician
Default : No
Forced : No

Text #35
ID : 37
Format : UTF-8
Codec ID : S_TEXT/UTF8
Codec ID/Info : UTF-8 Plain Text
Duration : 1 h 31 min
Bit rate : 82 b/s
Frame rate : 0.366 FPS
Count of elements : 2004
Stream size : 55.4 KiB (0%)
Title : English [SDH]
Language : English
Default : No
Forced : No

Text #36
ID : 38
Format : UTF-8
Codec ID : S_TEXT/UTF8
Codec ID/Info : UTF-8 Plain Text
Duration : 1 h 34 min
Bit rate : 61 b/s
Frame rate : 0.276 FPS
Count of elements : 1574
Stream size : 42.8 KiB (0%)
Title : Danish
Language : Danish
Default : No
Forced : No

Text #37
ID : 39
Format : UTF-8
Codec ID : S_TEXT/UTF8
Codec ID/Info : UTF-8 Plain Text
Duration : 1 h 34 min
Bit rate : 63 b/s
Frame rate : 0.280 FPS
Count of elements : 1594
Stream size : 44.1 KiB (0%)
Title : German
Language : German
Default : No
Forced : No

Text #38
ID : 40
Format : UTF-8
Codec ID : S_TEXT/UTF8
Codec ID/Info : UTF-8 Plain Text
Duration : 1 h 34 min
Bit rate : 62 b/s
Frame rate : 0.281 FPS
Count of elements : 1599
Stream size : 43.5 KiB (0%)
Title : Italian
Language : Italian
Default : No
Forced : No

Text #39
ID : 41
Format : UTF-8
Codec ID : S_TEXT/UTF8
Codec ID/Info : UTF-8 Plain Text
Duration : 1 h 34 min
Bit rate : 69 b/s
Frame rate : 0.279 FPS
Count of elements : 1587
Stream size : 48.5 KiB (0%)
Title : Romanian
Language : Romanian
Default : No
Forced : No

Text #40
ID : 42
Format : UTF-8
Codec ID : S_TEXT/UTF8
Codec ID/Info : UTF-8 Plain Text
Duration : 1 h 34 min
Bit rate : 60 b/s
Frame rate : 0.282 FPS
Count of elements : 1604
Stream size : 41.8 KiB (0%)
Title : Catalan
Language : Catalan
Default : No
Forced : No

Text #41
ID : 43
Format : UTF-8
Codec ID : S_TEXT/UTF8
Codec ID/Info : UTF-8 Plain Text
Duration : 1 h 34 min
Bit rate : 61 b/s
Frame rate : 0.280 FPS
Count of elements : 1594
Stream size : 42.4 KiB (0%)
Title : Portuguese
Language : Portuguese
Default : No
Forced : No

资源速度为零或资源敏感被和谐时,推荐使用qBittorrent等下载软件,有条件的推荐115更好的下载软件!

下载地址:

游客,如果您要查看本帖隐藏内容请回复

游客,如果您要查看本帖隐藏内容请回复






上一篇:马尔科姆先生的清单 / Mr.Malcolms.List (2022) 4K高清版本下载
下一篇:从此,永远幸福 / Jug Jugg Jeeyo (2022) 4K高清版本下载
回复

使用道具 举报

1

主题

1614

帖子

4448

积分

4K家园VIP

Rank: 9Rank: 9Rank: 9

积分
4448
发表于 2022-7-22 20:20:05 | 显示全部楼层
无论是不是沙发都得回复下
回复 支持 反对

使用道具 举报

40

主题

1503

帖子

4325

积分

4K家园VIP

Rank: 9Rank: 9Rank: 9

积分
4325
发表于 2022-7-22 21:34:19 | 显示全部楼层
感谢分享
回复 支持 反对

使用道具 举报

38

主题

1494

帖子

4300

积分

4K家园VIP

Rank: 9Rank: 9Rank: 9

积分
4300
发表于 2022-7-23 01:41:04 | 显示全部楼层
very good
回复 支持 反对

使用道具 举报

54

主题

1565

帖子

4469

积分

4K家园VIP

Rank: 9Rank: 9Rank: 9

积分
4469
发表于 2022-7-23 02:35:55 | 显示全部楼层
4K家园资源最近貌似越来越多了
回复 支持 反对

使用道具 举报

4

主题

1376

帖子

4150

积分

4K家园VIP

Rank: 9Rank: 9Rank: 9

积分
4150
发表于 2022-7-23 04:53:31 | 显示全部楼层
嘘,低调。
回复 支持 反对

使用道具 举报

0

主题

111

帖子

330

积分

新手上路

Rank: 1

积分
330
发表于 2022-7-23 06:38:19 | 显示全部楼层
感谢楼主
回复

使用道具 举报

您需要登录后才可以回帖 登录 | 立即注册

本版积分规则

精彩图文
Archiver|手机版|TAG|Sitemap|新帖|专题|联系我们:邮箱: 4kjia.com@gmail.com   

4k家园   ©2019