[4K电影] 闪电舞 / Flashdance (1983) 4K高清版本下载

[复制链接]

2163

主题

2306

帖子

1万

积分

超级版主

Rank: 8Rank: 8

积分
16861
 楼主| 发表于 2022-7-24 10:50:27 | 显示全部楼层 |阅读模式
本帖最后由 最爱4K哟 于 2022-7-24 11:02 编辑

QQ图片20220724110056_副本.png

◎译  名 闪电舞/劲舞/闪舞
◎片  名 Flashdance
◎年  代 1983
◎产  地 美国
◎类  别 剧情 / 爱情 / 音乐
◎语  言 英语
◎上映日期 1983-04-15
◎IMDb评分 6.2/10 from 53146 users
◎IMDb链接 https://www.imdb.com/title/tt0085549/
◎豆瓣评分 7.7/10 from 2199 users
◎豆瓣链接 https://movie.douban.com/subject/1294360/
◎片  长 95 分钟
◎导  演 阿德里安·莱恩 Adrian Lyne
◎编  剧 小托马斯·赫德利 Thomas Hedley Jr. / 乔·埃泽特哈斯 Joe Eszterhas
◎主  演 詹妮弗·比尔斯 Jennifer Beals
       迈克尔·诺里 Michael Nouri
       莉利亚·斯卡瓦 Lilia Skala
       桑妮·约翰逊 Sunny Johnson
       凯尔·T·赫夫纳 Kyle T. Heffner


◎简  介

  18岁的亚莉克欧文斯对舞蹈有一份狂爱,由于现实生活的压力,白天在一家铁工厂担任焊工,晚上在当地一家酒吧演出,全片刻画亚莉克追求理想、独立与爱情的奋斗过程。 主题曲由艾伦卡拉主唱,支支动听,舞曲风靡全球。

◎获奖情况

  第56届奥斯卡金像奖 ?(1984)
  最佳摄影(提名) 唐纳德·彼得曼
  最佳剪辑(提名) 巴德·S·史密斯?/?沃尔特·穆尔科内里
  最佳原创歌曲 基思·福西?/?乔治·莫罗德?/?艾瑞尼·卡拉
  最佳原创歌曲(提名) 迈克尔·塞姆贝洛?/?丹尼斯·马特科斯基

  第8届报知映画赏 ?(1983)
  海外作品奖 阿德里安·莱恩

Video
ID : 1
Format : HEVC
Format/Info : High Efficiency Video Coding
Format profile : Main 10@L5@High
HDR format : Dolby Vision, Version 1.0, dvhe.05.06, BL+RPU
Codec ID : V_MPEGH/ISO/HEVC
Duration : 1 h 34 min
Bit rate : 24.8 Mb/s
Width : 3 840 pixels
Height : 2 160 pixels
Display aspect ratio : 16:9
Frame rate mode : Constant
Frame rate : 23.976 (24000/1001) FPS
Color space : YUV
Chroma subsampling : 4:2:0
Bit depth : 10 bits
Bits/(Pixel*Frame) : 0.125
Stream size : 16.4 GiB (84%)
Default : Yes
Forced : No

Audio #1
ID : 2
ID in the original source medium : 4352 (0x1100)
Format : DTS XLL
Format/Info : Digital Theater Systems
Commercial name : DTS-HD Master Audio
Codec ID : A_DTS
Duration : 1 h 34 min
Bit rate mode : Variable
Bit rate : 3 607 kb/s
Channel(s) : 6 channels
Channel layout : C L R Ls Rs LFE
Sampling rate : 48.0 kHz
Frame rate : 93.750 FPS (512 SPF)
Bit depth : 24 bits
Compression mode : Lossless
Stream size : 2.39 GiB (12%)
Title : DTS-HD MA 5.1
Language : English
Default : Yes
Forced : No
Original source medium : Blu-ray

Audio #2
ID : 3
Format : E-AC-3
Format/Info : Enhanced AC-3
Commercial name : Dolby Digital Plus
Codec ID : A_EAC3
Duration : 1 h 34 min
Bit rate mode : Constant
Bit rate : 640 kb/s
Channel(s) : 6 channels
Channel layout : L R C LFE Ls Rs
Sampling rate : 48.0 kHz
Frame rate : 31.250 FPS (1536 SPF)
Compression mode : Lossy
Stream size : 433 MiB (2%)
Title : DDP 5.1
Language : English
Service kind : Complete Main
Default : No
Forced : No

Audio #3
ID : 4
Format : AC-3
Format/Info : Audio Coding 3
Commercial name : Dolby Digital
Codec ID : A_AC3
Duration : 1 h 34 min
Bit rate mode : Constant
Bit rate : 384 kb/s
Channel(s) : 6 channels
Channel layout : L R C LFE Ls Rs
Sampling rate : 48.0 kHz
Frame rate : 31.250 FPS (1536 SPF)
Compression mode : Lossy
Stream size : 260 MiB (1%)
Language : English
Service kind : Complete Main
Default : No
Forced : No

Text #1
ID : 5
Format : UTF-8
Codec ID : S_TEXT/UTF8
Codec ID/Info : UTF-8 Plain Text
Duration : 1 h 32 min
Bit rate : 31 b/s
Frame rate : 0.171 FPS
Count of elements : 944
Stream size : 21.6 KiB (0%)
Title : English
Language : English
Default : Yes
Forced : No

Text #2
ID : 6
Format : UTF-8
Codec ID : S_TEXT/UTF8
Codec ID/Info : UTF-8 Plain Text
Duration : 1 h 33 min
Bit rate : 43 b/s
Frame rate : 0.224 FPS
Count of elements : 1260
Stream size : 29.9 KiB (0%)
Title : English [SDH]
Language : English
Default : No
Forced : No

Text #3
ID : 7
Format : UTF-8
Codec ID : S_TEXT/UTF8
Codec ID/Info : UTF-8 Plain Text
Duration : 1 h 23 min
Bit rate : 39 b/s
Frame rate : 0.146 FPS
Count of elements : 735
Stream size : 24.0 KiB (0%)
Title : French European
Language : French
Default : No
Forced : No

Text #4
ID : 8
ID in the original source medium : 4608 (0x1200)
Format : PGS
Muxing mode : zlib
Codec ID : S_HDMV/PGS
Codec ID/Info : Picture based subtitle format used on BDs/HD-DVDs
Duration : 1 h 23 min
Bit rate : 24.3 kb/s
Frame rate : 0.288 FPS
Count of elements : 1450
Stream size : 14.6 MiB (0%)
Language : English
Default : No
Forced : No
Original source medium : Blu-ray

Text #5
ID : 9
ID in the original source medium : 4609 (0x1201)
Format : PGS
Muxing mode : zlib
Codec ID : S_HDMV/PGS
Codec ID/Info : Picture based subtitle format used on BDs/HD-DVDs
Duration : 1 h 33 min
Bit rate : 32.4 kb/s
Frame rate : 0.319 FPS
Count of elements : 1791
Stream size : 21.7 MiB (0%)
Language : English
Default : No
Forced : No
Original source medium : Blu-ray

Text #6
ID : 10
ID in the original source medium : 4610 (0x1202)
Format : PGS
Muxing mode : zlib
Codec ID : S_HDMV/PGS
Codec ID/Info : Picture based subtitle format used on BDs/HD-DVDs
Duration : 1 h 31 min
Bit rate : 21.0 kb/s
Frame rate : 0.265 FPS
Count of elements : 1460
Stream size : 13.8 MiB (0%)
Language : French
Default : No
Forced : No
Original source medium : Blu-ray

Menu
00:00:00.000 : en:Chapter 01
00:03:49.270 : en:Chapter 02
00:11:29.272 : en:Chapter 03
00:24:33.973 : en:Chapter 04
00:25:54.054 : en:Chapter 05
00:29:32.939 : en:Chapter 06
00:33:04.275 : en:Chapter 07
00:39:28.493 : en:Chapter 08
00:44:20.827 : en:Chapter 09
00:47:52.122 : en:Chapter 10
00:51:58.618 : en:Chapter 11
00:55:17.776 : en:Chapter 12
01:02:13.817 : en:Chapter 13
01:05:59.959 : en:Chapter 14
01:14:23.755 : en:Chapter 15
01:18:30.001 : en:Chapter 16
01:24:55.804 : en:Chapter 17
01:29:59.399 : en:Chapter 18

资源速度为零或资源敏感被和谐时,推荐使用qBittorrent等下载软件,有条件的推荐115更好的下载软件!

下载地址:


游客,如果您要查看本帖隐藏内容请回复

游客,如果您要查看本帖隐藏内容请回复

游客,如果您要查看本帖隐藏内容请回复


相关其他4K高清版本链接:闪电舞 / Flashdance (1983) 4K高清版本下载/12.70GB


113057oqrm9e8i2j29b4ij.png

上一篇:致命诱惑 / Fatal Attraction (1987) 4K高清版本下载
下一篇:风的另一边 / The Other Side of the Wind‎ (2018) 4K高清版本下载
回复

使用道具 举报

1

主题

1611

帖子

4441

积分

4K家园VIP

Rank: 9Rank: 9Rank: 9

积分
4441
发表于 2022-7-24 10:50:31 | 显示全部楼层
垃圾
回复 支持 反对

使用道具 举报

2

主题

1423

帖子

4291

积分

4K家园VIP

Rank: 9Rank: 9Rank: 9

积分
4291
发表于 2022-7-24 10:50:31 | 显示全部楼层
多发些资源啊
回复 支持 反对

使用道具 举报

0

主题

8337

帖子

1万

积分

4K家园VIP

Rank: 9Rank: 9Rank: 9

积分
19391
发表于 2022-7-25 08:59:07 | 显示全部楼层
太好啦&萬分感謝版主的無私發佈分享%
回复 支持 反对

使用道具 举报

195

主题

1599

帖子

4399

积分

4K家园VIP

Rank: 9Rank: 9Rank: 9

积分
4399
发表于 2022-8-3 23:46:49 | 显示全部楼层
感谢楼主的分享,还是阔以滴
回复 支持 反对

使用道具 举报

57

主题

1467

帖子

4237

积分

4K家园VIP

Rank: 9Rank: 9Rank: 9

积分
4237
发表于 2022-8-4 11:48:58 来自手机 | 显示全部楼层
占位编辑
回复 支持 反对

使用道具 举报

您需要登录后才可以回帖 登录 | 立即注册

本版积分规则

精彩图文
Archiver|手机版|TAG|Sitemap|新帖|专题|联系我们:邮箱: 4kjia.com@gmail.com   

4k家园   ©2019